Results 1 to 1 of 1
  1. #1
    dR Rockers www.desirulez.net
    Join Date
    Jun 2011
    Posts
    2,793

    Thumbs up WWE Friday Night Smackdown 2013 11 01 720p HDTV x264 KYR 2.8gb

    Follow us on Social Media









    General
    Format : Matroska
    Format version : Version 4 / Version 2
    File size : 2.80 GiB
    Duration : 1h 22mn
    Overall bit rate : 4 856 Kbps
    Encoded date : UTC 2013-11-02 23:26:27


    Video
    ID : 1
    Format : AVC
    Format/Info : Advanced Video Codec
    Format profile : [email protected]
    Format settings, CABAC : Yes
    Format settings, ReFrames : 5 frames
    Codec ID : V_MPEG4/ISO/AVC
    Duration : 1h 22mn
    Bit rate : 4 375 Kbps
    Width : 1 280 pixels
    Height : 720 pixels
    Display aspect ratio : 16:9
    Frame rate : 29.970 fps
    Color space : YUV
    Chroma subsampling : 4:2:0
    Bit depth : 8 bits
    Scan type : Progressive
    Bits/(Pixel*Frame) : 0.158
    Stream size : 2.52 GiB (90%)
    Writing library : x264 core 138 r2358 9e941d1
    Encoding settings : cabac=1 / ref=5 / deblock=1:0:0 / analyse=0x3:0x113 / me=umh / subme=8 / psy=1 / psy_rd=1.00:0.00 / mixed_ref=1 / me_range=16 / chroma_me=1 / trellis=1 / 8x8dct=1 / cqm=0 / deadzone=21,11 / fast_pskip=1 / chroma_qp_offset=-2 / threads=18 / lookahead_threads=3 / sliced_threads=0 / nr=0 / decimate=1 / interlaced=0 / bluray_compat=0 / constrained_intra=0 / bframes=3 / b_pyramid=2 / b_adapt=2 / b_bias=0 / direct=3 / weightb=1 / open_gop=0 / weightp=2 / keyint=250 / keyint_min=25 / scenecut=40 / intra_refresh=0 / rc_lookahead=50 / rc=crf / mbtree=1 / crf=23.0 / qcomp=0.60 / qpmin=0 / qpmax=69 / qpstep=4 / ip_ratio=1.40 / aq=1:1.00
    Language : English
    Default : Yes
    Forced : No

    Audio
    ID : 2
    Format : AC-3
    Format/Info : Audio Coding 3
    Mode extension : CM (complete main)
    Codec ID : A_AC3
    Duration : 1h 22mn
    Bit rate mode : Constant
    Bit rate : 384 Kbps
    Channel(s) : 6 channels
    Channel positions : Front: L C R, Side: L R, LFE
    Sampling rate : 48.0 KHz
    Bit depth : 16 bits
    Compression mode : Lossy
    Delay relative to video : 58ms
    Stream size : 227 MiB (8%)
    Default : Yes
    Forced : No




    DOWNLOAD LINKS
    Code:
    SINGLE LINKS:
    
    http://www.arabloads.com/ge9zcfg4b7pz/wwe.friday.night.smackdown.2013.11.01.720p.hdtv.x264-kyr.mkv.html
    
    http://turbobit.net/4reqhs5ap3v7/wwe.friday.night.smackdown.2013.11.01.720p.hdtv.x264-kyr.mkv.html
    
    http://www.hitfile.net/Rd6Y/wwe.friday.night.smackdown.2013.11.01.720p.hdtv.x264-kyr.mkv.html
    
    http://uploaded.net/file/rca15ul6/wwe.friday.night.smackdown.2013.11.01.720p.hdtv.x264-kyr.mkv
    
    SPLIT LINKS:
    
    http://www.arabloads.com/ny2ttpyl265n/wwe.friday.night.smackdown.2013.11.01.720p.hdtv.x264-kyr.mkv.part1.rar.html
    http://www.arabloads.com/rwct08e2ohi1/wwe.friday.night.smackdown.2013.11.01.720p.hdtv.x264-kyr.mkv.part2.rar.html
    http://www.arabloads.com/huann8kdssg6/wwe.friday.night.smackdown.2013.11.01.720p.hdtv.x264-kyr.mkv.part3.rar.html
    
    http://turbobit.net/2cn0em1ip6r9/wwe.friday.night.smackdown.2013.11.01.720p.hdtv.x264-kyr.mkv.part1.rar.html
    http://turbobit.net/7c3276xc8c1h/wwe.friday.night.smackdown.2013.11.01.720p.hdtv.x264-kyr.mkv.part2.rar.html
    http://turbobit.net/26vh6pzpyt7q/wwe.friday.night.smackdown.2013.11.01.720p.hdtv.x264-kyr.mkv.part3.rar.html
    
    http://www.hitfile.net/gOZX/wwe.friday.night.smackdown.2013.11.01.720p.hdtv.x264-kyr.mkv.part1.rar.html
    http://www.hitfile.net/OA8r/wwe.friday.night.smackdown.2013.11.01.720p.hdtv.x264-kyr.mkv.part2.rar.html
    http://www.hitfile.net/d4rb/wwe.friday.night.smackdown.2013.11.01.720p.hdtv.x264-kyr.mkv.part3.rar.html
    
    http://uploaded.net/file/ksg0p44a/wwe.friday.night.smackdown.2013.11.01.720p.hdtv.x264-kyr.mkv.part1.rar
    http://uploaded.net/file/4spp6xh0/wwe.friday.night.smackdown.2013.11.01.720p.hdtv.x264-kyr.mkv.part2.rar
    http://uploaded.net/file/rd3pvfro/wwe.friday.night.smackdown.2013.11.01.720p.hdtv.x264-kyr.mkv.part3.rar
    
    http://junocloud.me/xj151ko1eqc3/wwe.friday.night.smackdown.2013.11.01.720p.hdtv.x264-kyr.mkv.part1.rar.html
    http://junocloud.me/iel8r8fogzbp/wwe.friday.night.smackdown.2013.11.01.720p.hdtv.x264-kyr.mkv.part2.rar.html
    http://junocloud.me/30yu77850pzv/wwe.friday.night.smackdown.2013.11.01.720p.hdtv.x264-kyr.mkv.part3.rar.html



 

 

Posting Permissions

  • You may not post new threads
  • You may not post replies
  • You may not post attachments
  • You may not edit your posts
  •