Results 1 to 1 of 1
  1. #1
    dR Rockers www.desirulez.net
    Join Date
    Jun 2011
    Posts
    2,793

    Thumbs up WWE Friday Night Smackdown 2013 11 01 HDTV x264 KYR 900Mb

    Follow us on Social Media









    General
    Format : MPEG-4
    Format profile : Base Media
    Codec ID : isom
    File size : 901 MiB
    Duration : 1h 22mn
    Overall bit rate mode : Variable
    Overall bit rate : 1 524 Kbps
    Encoded date : UTC 2013-11-03 00:03:30
    Tagged date : UTC 2013-11-03 00:03:30

    Video
    ID : 1
    Format : AVC
    Format/Info : Advanced Video Codec
    Format profile : [email protected]
    Format settings, CABAC : Yes
    Format settings, ReFrames : 5 frames
    Codec ID : avc1
    Codec ID/Info : Advanced Video Coding
    Duration : 1h 22mn
    Bit rate : 1 388 Kbps
    Maximum bit rate : 5 098 Kbps
    Width : 720 pixels
    Height : 406 pixels
    Display aspect ratio : 16:9
    Frame rate mode : Constant
    Frame rate : 29.970 fps
    Color space : YUV
    Chroma subsampling : 4:2:0
    Bit depth : 8 bits
    Scan type : Progressive
    Bits/(Pixel*Frame) : 0.158
    Stream size : 820 MiB (91%)
    Title : final.264
    Writing library : x264 core 138 r2358 9e941d1
    Encoding settings : cabac=1 / ref=5 / deblock=1:0:0 / analyse=0x3:0x113 / me=umh / subme=8 / psy=1 / psy_rd=1.00:0.00 / mixed_ref=1 / me_range=16 / chroma_me=1 / trellis=1 / 8x8dct=1 / cqm=0 / deadzone=21,11 / fast_pskip=1 / chroma_qp_offset=-2 / threads=18 / lookahead_threads=3 / sliced_threads=0 / nr=0 / decimate=1 / interlaced=0 / bluray_compat=0 / constrained_intra=0 / bframes=3 / b_pyramid=2 / b_adapt=2 / b_bias=0 / direct=3 / weightb=1 / open_gop=0 / weightp=2 / keyint=250 / keyint_min=25 / scenecut=40 / intra_refresh=0 / rc_lookahead=50 / rc=crf / mbtree=1 / crf=24.0 / qcomp=0.60 / qpmin=0 / qpmax=69 / qpstep=4 / ip_ratio=1.40 / aq=1:1.00
    Encoded date : UTC 2013-11-03 00:03:30
    Tagged date : UTC 2013-11-03 00:03:47
    Matrix coefficients : BT.709-5, BT.1361, IEC 61966-2-4 709, SMPTE RP177

    Audio
    ID : 2
    Format : AAC
    Format/Info : Advanced Audio Codec
    Format profile : LC
    Codec ID : 40
    Duration : 1h 22mn
    Bit rate mode : Variable
    Bit rate : 132 Kbps
    Maximum bit rate : 151 Kbps
    Channel(s) : 2 channels
    Channel positions : Front: L R
    Sampling rate : 48.0 KHz
    Compression mode : Lossy
    Stream size : 77.5 MiB (9%)





    DOWNLOAD LINKS
    Code:
    SINGLE LINKS:
    http://www.arabloads.com/rio8kos6h2or/wwe.friday.night.smackdown.2013.11.01.hdtv.x264-kyr.mp4.html
    
    http://turbobit.net/cxc6dkq27deh/wwe.friday.night.smackdown.2013.11.01.hdtv.x264-kyr.mp4.html
    
    http://junocloud.me/9bj57rleqbhx/wwe.friday.night.smackdown.2013.11.01.hdtv.x264-kyr.mp4.html
    
    http://uploaded.net/file/y6881d54/wwe.friday.night.smackdown.2013.11.01.hdtv.x264-kyr.mp4
    
    http://www.hitfile.net/iKYE/wwe.friday.night.smackdown.2013.11.01.hdtv.x264-kyr.mp4.html



 

 

Posting Permissions

  • You may not post new threads
  • You may not post replies
  • You may not post attachments
  • You may not edit your posts
  •