Results 1 to 1 of 1
  1. #1
    dR Dazzler www.desirulez.net
    Join Date
    Mar 2009
    Posts
    1,518

    Default Yeh Mera India 2009 1 CD pDvD Rip

    Follow us on Social Media






    Yeh Mera India 2009 pDVDRip




    Star Cast

    Anupam Kher
    Atul Kulkarni
    Milind Gunaji
    Perizaad Zorabian
    Purab Kohli
    Smily Suri
    Parvin Dabbas
    Rajit Kapoor
    Rajpal Yadav
    Sarika Sayaji Shinde
    Seema Biswas
    Vijay Raaz
    Ashwin Mushran
    Amarjit Singh
    Virendra Saxena
    Ehsaan Khan









    Code:
    General
    Format                           : AVI
    Format/Info                      : Audio Video Interleave
    File size                        : 670 MiB
    Duration                         : 2h 14mn
    Overall bit rate                 : 696 Kbps
    
    Video
    Format                           : MPEG-4 Visual
    Format profile                   : Streaming [email protected]
    Format settings, BVOP            : Yes
    Format settings, QPel            : No
    Format settings, GMC             : No warppoints
    Format settings, Matrix          : Default (H.263)
    Codec ID                         : XVID
    Codec ID/Hint                    : XviD
    Duration                         : 2h 14mn
    Bit rate                         : 588 Kbps
    Width                            : 688 pixels
    Height                           : 272 pixels
    Display aspect ratio             : 2.529
    Frame rate                       : 29.970 fps
    Resolution                       : 24 bits
    Colorimetry                      : 4:2:0
    Scan type                        : Progressive
    Bits/(Pixel*Frame)               : 0.105
    Stream size                      : 566 MiB (85%)
    Writing library                  : XviD 1.1.2 (UTC 2006-11-01)
    
    Audio
    Format                           : MPEG Audio
    Format version                   : Version 1
    Format profile                   : Layer 2
    Codec ID                         : 50
    Codec ID/Hint                    : MP1
    Duration                         : 2h 14mn
    Bit rate mode                    : Constant
    Bit rate                         : 96.0 Kbps
    Channel(s)                       : 2 channels
    Sampling rate                    : 48.0 KHz
    Resolution                       : 16 bits
    Stream size                      : 92.4 MiB (14%)
    Alignment                        : Aligned on interleaves
    Interleave, duration             : 33 ms (1.00 video frame)
    Code:
    http://www.storage.to/get/ciLoENSu/Y___M__I__1CD_pDVD_BY_Arvendu.avi.001
    http://www.storage.to/get/ngvH9PwV/Y___M__I__1CD_pDVD_BY_Arvendu.avi.002
    http://www.storage.to/get/Kw7Sa5ya/Y___M__I__1CD_pDVD_BY_Arvendu.avi.003
    http://www.storage.to/get/THWbUXGD/Y___M__I__1CD_pDVD_BY_Arvendu.avi.004
    Code:
    http://rapidshare.com/files/272603826/Y___M__I__1CD_pDVD_BY_Arvendu.avi.001
    http://rapidshare.com/files/272603829/Y___M__I__1CD_pDVD_BY_Arvendu.avi.002
    http://rapidshare.com/files/272606769/Y___M__I__1CD_pDVD_BY_Arvendu.avi.003
    http://rapidshare.com/files/272603704/Y___M__I__1CD_pDVD_BY_Arvendu.avi.004
    Code:
    http://www.hotfile.com/links/11018656/452d9a3/Y___M__I__1CD_pDVD_BY_Arvendu.avi.001.html
    http://www.hotfile.com/links/11018943/39a24a5/Y___M__I__1CD_pDVD_BY_Arvendu.avi.002.html
    http://www.hotfile.com/links/11019230/322c1de/Y___M__I__1CD_pDVD_BY_Arvendu.avi.003.html
    http://www.hotfile.com/links/11019482/5273888/Y___M__I__1CD_pDVD_BY_Arvendu.avi.004.html
    Code:
    http://www.filefactory.com/file/ah4e4e5/n/Y_M_I_1CD_pDVD_BY_Arvendu_avi_001
    http://www.filefactory.com/file/ah4e4e6/n/Y_M_I_1CD_pDVD_BY_Arvendu_avi_002
    http://www.filefactory.com/file/ah4e4fb/n/Y_M_I_1CD_pDVD_BY_Arvendu_avi_003
    http://www.filefactory.com/file/ah4e4f0/n/Y_M_I_1CD_pDVD_BY_Arvendu_avi_004


 

 

Posting Permissions

  • You may not post new threads
  • You may not post replies
  • You may not post attachments
  • You may not edit your posts
  •