Page 1 of 4 1234 LastLast
Results 1 to 20 of 65
  1. #1
    Super Member www.desirulez.net
    Join Date
    Feb 2012
    Posts
    189

    Default 1080p | 720p | BluRay Rips | DVD Rip | Bolly - Tolly - Kolly IteMs Songs MEGA Thread

    Follow us on Social Media






  2. #2
    Super Member www.desirulez.net
    Join Date
    Feb 2012
    Posts
    189

    Default

    Sharaddha Das Bikini Video HD

















































































    Download @
    Shraad Thas - Biki HD.avi - 119.84 MB

  3. #3

  4. #4
    Super Member www.desirulez.net
    Join Date
    Feb 2012
    Posts
    189

    Default

    Sheila Ki Jawani - 1080p Upscaled DVD Rip - AC3



































    Download @
    She Ki Jaa - 1080p Upscaled DVD Rip - AC3.mkv - 274.03 MB

  5. #5

  6. #6
    Super Member www.desirulez.net
    Join Date
    Feb 2012
    Posts
    189

    Default

    Bikram Singha - Mahek Chanchal

































    Download @
    Lions Back 1080i.mp4 - 95.61 MB

  7. #7
    Super Member www.desirulez.net
    Join Date
    Feb 2012
    Posts
    189

    Default

    Sharing the BluRay Rip of Chikni Chameli Full Video song, this song runs for complete 6 Minutes and 6 Secs













































    Download @
    CC of Aag BR 1080p.mkv - 581.39 MB



    Media Info

    Video
    ID : 1
    Format : AVC
    Format/Info : Advanced Video Codec
    Format profile : [email protected]
    Format settings, CABAC : Yes
    Format settings, ReFrames : 4 frames
    Codec ID : V_MPEG4/ISO/AVC
    Duration : 6mn 6s
    Bit rate : 11.5 Mbps
    Width : 1 920 pixels
    Height : 816 pixels
    Display aspect ratio : 2.35:1
    Frame rate mode : Constant
    Frame rate : 24.000 fps
    Color space : YUV
    Chroma subsampling : 4:2:0
    Bit depth : 8 bits
    Scan type : Progressive
    Bits/(Pixel*Frame) : 0.307
    Stream size : 504 MiB (87%)
    Title : KaMaL DDR
    Language : Hindi
    Default : Yes
    Forced : No

  8. #8

  9. #9
    Super Member www.desirulez.net
    Join Date
    Feb 2012
    Posts
    189

    Default

    I Hate Luv Story - Title
































































    Download @
    Heyte Lo Kahani.mkv - 134.40 MB

  10. #10
    Super Member www.desirulez.net
    Join Date
    Feb 2012
    Posts
    189

    Default

    Dhoom - Title Song By TATA Young HQ

































    Download@
    Lets TATA.avi - 62.74 MB
    Last edited by thetrojanz; 10-19-2013 at 09:21 AM.

  11. #11

  12. #12
    Super Member www.desirulez.net
    Join Date
    Feb 2012
    Posts
    189

    Default

    Muddante - 720p_BRRip_x264 [/url]







































    Download @
    Mudh _ Daanthe - 720P BluRay Rip.mkv - 156.12 MB

  13. #13
    Super Member www.desirulez.net
    Join Date
    Feb 2012
    Posts
    189

    Default

    Hot, Sexy, Dream Gal, Amazingly Beautiful - Malini Sharma (HD)





    Raag.mkv - 134.37 MB

  14. #14
    Super Member www.desirulez.net
    Join Date
    Feb 2012
    Posts
    189

    Default

    Sexy Madhuri & Karishma Kapoor (Beauties of Yesteryears) – 720p





    Pagal.mkv - 53.33 MB

  15. #15
    Super Member www.desirulez.net
    Join Date
    Feb 2012
    Posts
    189

    Default

    Sexy Minissha Lamba - Pyaar Ki Yeh Kahani Suno















    Download @
    Yaar Ki Story.avi - 26.90 MB

  16. #16
    Super Member www.desirulez.net
    Join Date
    Feb 2012
    Posts
    189

    Default

    Masha Allah – Ek Tha Tiger 1080p



















































    ID : 1
    Format : AVC
    Format/Info : Advanced Video Codec
    Format profile : [email protected]
    Format settings, CABAC : Yes
    Format settings, ReFrames : 1 frame
    Codec ID : avc1
    Codec ID/Info : Advanced Video Coding
    Duration : 3mn 9s
    Bit rate : 5 699 Kbps
    Maximum bit rate : 11.2 Mbps
    Width : 1 920 pixels
    Height : 1 080 pixels
    Display aspect ratio : 16:9
    Frame rate mode : Constant
    Frame rate : 24.000 fps
    Color space : YUV
    Chroma subsampling : 4:2:0
    Bit depth : 8 bits
    Scan type : Progressive
    Bits/(Pixel*Frame) : 0.115
    Stream size : 129 MiB (97%)



    Download@
    1 Was Liger - 1080p.mp4 - 132.02 MB

  17. #17
    Super Member www.desirulez.net
    Join Date
    Feb 2012
    Posts
    189

    Default

    Mona Chopra – Gustakian





    Download @
    Gus.mkv - 189.56 MB

  18. #18
    Super Member www.desirulez.net
    Join Date
    Feb 2012
    Posts
    189

    Default

    Beautiful & Sensuous Urmila Pyaar Tune Kya Kiya (1 of My Fav Songs)





    Download @
    Pyaar Tu.avi - 87.80 MB

  19. #19
    Super Member www.desirulez.net
    Join Date
    Feb 2012
    Posts
    189

    Default

    Prince - Tere Liye 720p































































    Download @
    Tore Leeye - 720p.mkv - 137.93 MB

  20. #20
    Landed To DesiRulez www.desirulez.net
    Join Date
    Oct 2013
    Location
    The Netherlands
    Posts
    10

    Default

    cool

 

 
Page 1 of 4 1234 LastLast

Posting Permissions

  • You may not post new threads
  • You may not post replies
  • You may not post attachments
  • You may not edit your posts
  •