Results 1 to 1 of 1
  1. #1
    dR Rockers www.desirulez.net
    Join Date
    Aug 2011
    Posts
    5,859

    Cool OUATIMD (2013) EU-DVDScr (New Source) (Version 1) x264 AC3 5.1 - DUS

    Follow us on Social Media









    Code:
    Source : Poker @ DrC (Thanks :thumbup1: )
    
    
    General
    Unique ID                                : 227791166487224848002723625075766402205 (0xAB5EFB9CBE4F5BEEB5C3C2CAA0671C9D)
    Complete name                            : J:\OUATIMD (2013) EU-DVDScr (New Source) (Version 1) x264 AC3 5.1 - DUS 5th Anniv\OUATIMD(2013) EU-DVDScr (New Source) (Version 1) x264 Ac3 5.1 - DUS 5th Anniv.mkv
    Format                                   : Matroska
    Format version                           : Version 2
    File size                                : 1.45 GiB
    Duration                                 : 2h 26mn
    Overall bit rate                         : 1 417 Kbps
    Encoded date                             : UTC 2013-08-19 18:04:58
    Writing application                      : mkvmerge v6.2.0 ('Promised Land') built on Apr 28 2013 12:22:01
    Writing library                          : libebml v1.3.0 + libmatroska v1.4.0
    
    Video
    ID                                       : 1
    Format                                   : AVC
    Format/Info                              : Advanced Video Codec
    Format profile                           : [email protected]
    Format settings, CABAC                   : Yes
    Format settings, ReFrames                : 4 frames
    Codec ID                                 : V_MPEG4/ISO/AVC
    Duration                                 : 2h 26mn
    Bit rate                                 : 967 Kbps
    Width                                    : 720 pixels
    Height                                   : 320 pixels
    Display aspect ratio                     : 2.25:1
    Frame rate mode                          : Constant
    Frame rate                               : 29.970 fps
    Color space                              : YUV
    Chroma subsampling                       : 4:2:0
    Bit depth                                : 8 bits
    Scan type                                : Progressive
    Bits/(Pixel*Frame)                       : 0.140
    Stream size                              : 984 MiB (66%)
    Writing library                          : x264 core 133 r2334 a3ac64b
    Encoding settings                        : cabac=1 / ref=3 / deblock=1:0:0 / analyse=0x3:0x113 / me=hex / subme=7 / psy=1 / psy_rd=1.00:0.00 / mixed_ref=1 / me_range=16 / chroma_me=1 / trellis=1 / 8x8dct=1 / cqm=0 / deadzone=21,11 / fast_pskip=1 / chroma_qp_offset=-2 / threads=24 / lookahead_threads=2 / sliced_threads=0 / nr=0 / decimate=1 / interlaced=0 / bluray_compat=0 / constrained_intra=0 / bframes=3 / b_pyramid=2 / b_adapt=1 / b_bias=0 / direct=1 / weightb=1 / open_gop=0 / weightp=2 / keyint=300 / keyint_min=29 / scenecut=40 / intra_refresh=0 / rc_lookahead=40 / rc=2pass / mbtree=1 / bitrate=967 / ratetol=1.0 / qcomp=0.60 / qpmin=0 / qpmax=69 / qpstep=4 / cplxblur=20.0 / qblur=0.5 / ip_ratio=1.40 / aq=1:1.00
    Default                                  : Yes
    Forced                                   : No
    
    Audio
    ID                                       : 2
    Format                                   : AC-3
    Format/Info                              : Audio Coding 3
    Mode extension                           : CM (complete main)
    Format settings, Endianness              : Big
    Codec ID                                 : A_AC3
    Duration                                 : 2h 26mn
    Bit rate mode                            : Constant
    Bit rate                                 : 448 Kbps
    Channel(s)                               : 6 channels
    Channel positions                        : Front: L C R, Side: L R, LFE
    Sampling rate                            : 48.0 KHz
    Bit depth                                : 16 bits
    Compression mode                         : Lossy
    Stream size                              : 469 MiB (32%)
    Default                                  : Yes
    Forced                                   : No





    SINGLE LINKS
    Code:
    http://extabit.com/file/2dud68vodgx2s/OUATIMD.2013.EU-DVDScr.New.Source.Version.1.x264.AC3.5.1-DUS.5th.Anniv.srt
    http://extabit.com/file/2dud68vodgx2c/OUATIMD.2013.EU-DVDScr.New.Source.Version.1.x264.AC3.5.1-DUS.5th.Anniv.mkv

    Code:
    http://uploaded.net/file/x8aa4khe/OUATIMD.2013.EU-DVDScr.New.Source.Version.1.x264.AC3.5.1-DUS.5th.Anniv.mkv
    http://uploaded.net/file/ihx11fel/OUATIMD.2013.EU-DVDScr.New.Source.Version.1.x264.AC3.5.1-DUS.5th.Anniv.srt

    Code:
    http://lumfile.com/boow163bvwxl/OUATIMD.2013.EU-DVDScr.New.Source.Version.1.x264.AC3.5.1-DUS.5th.Anniv.mkv.html
    http://lumfile.com/pb5p0s7yzxri/OUATIMD.2013.EU-DVDScr.New.Source.Version.1.x264.AC3.5.1-DUS.5th.Anniv.srt.html

 

 

Posting Permissions

  • You may not post new threads
  • You may not post replies
  • You may not post attachments
  • You may not edit your posts
  •