Results 1 to 1 of 1
  1. #1
    Hot Member www.desirulez.net
    Join Date
    Feb 2013
    Posts
    1,015

    Cool Fukrey (2013) - 1CD - DVDRip - Xvid - Mp3 - Esubs - Mafiaking

    Follow us on Social Media









    IMDB Rating: 6.5/10.0


    GENRE: Comedy | Drama | Romance


    General
    Complete name : Fukrey (2013) 1CD DVDRip - Xvid - Mp3 - ESubs - Mafiaking.avi
    Format : AVI
    Format/Info : Audio Video Interleave
    Format profile : OpenDML
    Format settings : rec
    File size : 706 MiB
    Duration : 2h 21mn
    Overall bit rate : 697 Kbps





    Video
    ID : 0
    Format : MPEG-4 Visual
    Format profile : Advanced [email protected]
    Format settings, BVOP : 1
    Format settings, QPel : No
    Format settings, GMC : No warppoints
    Format settings, Matrix : Default (H.263)
    Muxing mode : Packed bitstream
    Codec ID : XVID
    Codec ID/Hint : XviD
    Duration : 2h 21mn
    Bit rate : 630 Kbps
    Width : 640 pixels
    Height : 272 pixels
    Display aspect ratio : 2.35:1
    Frame rate : 23.976 fps
    Color space : YUV
    Chroma subsampling : 4:2:0
    Bit depth : 8 bits
    Scan type : Progressive
    Compression mode : Lossy
    Bits/(Pixel*Frame) : 0.151
    Stream size : 638 MiB (90%)
    Writing library : XviD 1.2.1 (UTC 2008-12-04)




    Audio
    ID : 1
    Format : MPEG Audio
    Format version : Version 2
    Format profile : Layer 3
    Mode : Joint stereo
    Mode extension : MS Stereo
    Codec ID : 55
    Codec ID/Hint : MP3
    Duration : 2h 21mn
    Bit rate mode : Constant
    Bit rate : 64.0 Kbps
    Channel(s) : 2 channels
    Sampling rate : 22.05 KHz
    Compression mode : Lossy
    Stream size : 64.8 MiB (9%)
    Alignment : Aligned on interleaves
    Interleave, duration : 977 ms (23.43 video frames)
    Interleave, preload duration : 208 ms
    Title : Mafiaking - [Hindi]
    Writing library : LAME3.99r



















    [ sample ]

    Code:
    http://www.arabloads.com/77bfe2yu9ec5/Sample_-_Fukrey_(2013)_1CD_DvDRip_-_Xvid_-_Mp3_-_Mafiaking.avi.html
    Code:
    http://www.arabloads.com/lx3z9j4wmotj/Fukrey_(2013)_1CD_DvDRip_-_Xvid_-_Mp3_-_Mafiaking.srt.html


    [ DOWNLOAD ]


    [ arabloads ]

    Code:
    http://www.arabloads.com/pmpvglpxevc8/Fukrey_(2013)_1CD_DvDRip_-_Xvid_-_Mp3_-_Mafiaking.avi.html
    [ nirafile ]

    Code:
    http://www.nirafile.com/pwvt42r7t8to














 

 

Posting Permissions

  • You may not post new threads
  • You may not post replies
  • You may not post attachments
  • You may not edit your posts
  •