Results 1 to 1 of 1
  1. #1
    Hot Member www.desirulez.net
    Join Date
    Feb 2013
    Posts
    1,015

    Cool Ekulti Ek ( 2013 ) - ( MARATHI ) - Xvid - MP3 - 1CD - DVDRip - TeamIBRG

    Follow us on Social Media










    General

    Source : [MDG]...(Thanks).

    Complete name :Ekulti Ek [ 2013 ] - [ MARATHI ] - Xvid - MP3 - 1CD - DVDRip - {TEAMIBRG}.avi
    Format : AVI
    Format/Info : Audio Video Interleave
    File size : 689 MiB
    Duration : 2h 14mn
    Overall bit rate : 714 Kbps

    Video
    ID : 0
    Format : MPEG-4 Visual
    Format profile : Advanced [email protected]
    Format settings, BVOP : 1
    Format settings, QPel : No
    Format settings, GMC : No warppoints
    Format settings, Matrix : Default (H.263)
    Codec ID : XVID
    Codec ID/Hint : XviD
    Duration : 2h 14mn
    Bit rate : 644 Kbps
    Width : 640 pixels
    Height : 272 pixels
    Display aspect ratio : 2.35:1
    Frame rate : 23.976 fps
    Color space : YUV
    Chroma subsampling : 4:2:0
    Bit depth : 8 bits
    Scan type : Progressive
    Compression mode : Lossy
    Bits/(Pixel*Frame) : 0.154
    Stream size : 622 MiB (90%)
    Writing library : XviD 1.2.1 (UTC 2013-18-04)

    Audio
    ID : 1
    Format : MPEG Audio
    Format version : Version 2
    Format profile : Layer 3
    Mode : Joint stereo
    Mode extension : MS Stereo
    Codec ID : 55
    Codec ID/Hint : MP3
    Duration : 2h 14mn
    Bit rate mode : Constant
    Bit rate : 64.0 Kbps
    Channel(s) : 2 channels
    Sampling rate : 24.0 KHz
    Compression mode : Lossy
    Stream size : 61.8 MiB (9%)
    Alignment : Aligned on interleaves
    Interleave, duration : 167 ms (4.00 video frames)
    Interleave, preload duration : 216 ms
    Writing library : LAME3.99r
    Encoding settings : [TEAMIBRG]















    [ DOWNLOAD ]




    [ arabloads ]

    Code:
    http://www.arabloads.com/v0qp1bnd3dhz/Ekulti_Ek_[_2013_]_-[_MARATHI_]_-_Xvid_-_MP3_-_1CD_-_DVDRip_-_%7BTEAMIBRG%7D.avi.html
    [ hugefiles ]

    Code:
    http://hugefiles.net/gshxok6l1hdp
    [ filesflash ]

    Code:
    http://filesflash.com/xwsr40f7
    [ filesflash for indian users ]

    Code:
    http://filesflash:8001.com/xwsr40f7
    [ nirafile ]

    Code:
    http://www.nirafile.com/8wbnwk0a7f9p

















 

 

Posting Permissions

  • You may not post new threads
  • You may not post replies
  • You may not post attachments
  • You may not edit your posts
  •