Results 1 to 1 of 1
  1. #1
    Hot Member www.desirulez.net
    Join Date
    Feb 2013
    Posts
    1,015

    Cool Raanjhanaa (2013) DVD5 REMUX x264 DD5.1 ESUBS - ExD

    Follow us on Social Media









    [IMG]Format : MPEG-4 Format profile : Base Media / Version 2 Codec ID : mp42 File size : 3.97 GiB Duration : 2h 20mn Overall bit rate : 4 055 Kbps Video ID : 1 Format : AVC Format/Info : Advanced Video Codec Format profile : [email protected] Format settings, CABAC : Yes Format settings, ReFrames : 4 frames Codec ID : avc1 Codec ID/Info : Advanced Video Coding Duration : 2h 20mn Bit rate mode : Variable Bit rate : 3 700 Kbps Width : 720 pixels Height : 480 pixels Display aspect ratio : 16:9 Original display aspect ratio : 16:9 Frame rate mode : Variable Frame rate : 23.976 fps Minimum frame rate : 19.965 fps Maximum frame rate : 29.970 fps Standard : NTSC Color space : YUV Chroma subsampling : 4:2:0 Bit depth : 8 bits Scan type : Progressive Bits/(Pixel*Frame) : 0.447 Stream size : 3.53 GiB (89%) Writing library : x264 core 130 r2273 b3065e6 Audio ID : 2 Format : AC-3 Format/Info : Audio Coding 3 Mode extension : CM (complete main) Format settings, Endianness : Big Codec ID : ac-3 Duration : 2h 20mn Bit rate mode : Constant Bit rate : 448 Kbps Channel(s) : 6 channels Channel positions : Front: L C R, Side: L R, LFE Sampling rate : 48.0 KHz Bit depth : 16 bits Compression mode : Lossy Delay relative to video : 83ms Stream size : 449 MiB (11%) Language : Hindi Menu ID : 3 Codec ID : text Duration : 2h 20mn Encoded date : UTC 2013-08-21 15:07:41 Tagged date : UTC 2013-08-21 15:46:20 Bit rate mode : VBR[/IMG]









    [ DOWNLOAD ]




    [ arabloads ]

    Code:
    http://www.arabloads.com/q0mydhk4v0ny/Raanjhanaa_[2013].m4v.html
    [ hugefiles ]

    Code:
    http://hugefiles.net/406spxlaxzko
    [ filesflash ]

    Code:
    http://filesflash.com/aullx0p6
    [ filesflash for indian users ]

    Code:
    http://filesflash:8001.com/aullx0p6
    [ nirafile ]

    Code:
    http://www.nirafile.com/z4gext5yv3er














 

 

Posting Permissions

  • You may not post new threads
  • You may not post replies
  • You may not post attachments
  • You may not edit your posts
  •