Results 1 to 1 of 1
  1. #1
    Super Member www.desirulez.net
    Join Date
    Sep 2012
    Location
    Pakistan
    Posts
    354

    Default Fukrey (2013) - 720p - DVDRip - X264 - Anon

    Follow us on Social Media









    Code:
    Format                                   : Matroska
    Format version                           : Version 2
    File size                                : 3.00 GiB
    Duration                                 : 2h 21mn
    Overall bit rate                         : 3 031 Kbps
    Encoded date                             : UTC 2013-08-22 23:10:49
    Writing application                      : mkvmerge v5.6.0 ('Kenya Kane') built on May 27 2012 16:44:04
    Writing library                          : libebml v1.2.3 + libmatroska v1.3.0
    
    Video
    ID                                       : 1
    Format                                   : AVC
    Format/Info                              : Advanced Video Codec
    Format profile                           : [email protected]
    Format settings, CABAC                   : Yes
    Format settings, ReFrames                : 4 frames
    Codec ID                                 : V_MPEG4/ISO/AVC
    Duration                                 : 2h 21mn
    Bit rate                                 : 2 581 Kbps
    Width                                    : 1 280 pixels
    Height                                   : 544 pixels
    Display aspect ratio                     : 2.35:1
    Frame rate mode                          : Constant
    Frame rate                               : 23.976 fps
    Color space                              : YUV
    Chroma subsampling                       : 4:2:0
    Bit depth                                : 8 bits
    Scan type                                : Progressive
    Bits/(Pixel*Frame)                       : 0.155
    Stream size                              : 2.50 GiB (83%)
    Writing library                          : x264 core 125 r2200 999b753
    Encoding settings                        : cabac=1 / ref=3 / deblock=1:0:0 / analyse=0x3:0x113 / me=hex / subme=7 / psy=1 / psy_rd=1.00:0.00 / mixed_ref=1 / me_range=16 / chroma_me=1 / trellis=1 / 8x8dct=1 / cqm=0 / deadzone=21,11 / fast_pskip=1 / chroma_qp_offset=-2 / threads=12 / lookahead_threads=2 / sliced_threads=0 / nr=0 / decimate=1 / interlaced=0 / bluray_compat=0 / constrained_intra=0 / bframes=3 / b_pyramid=2 / b_adapt=1 / b_bias=0 / direct=1 / weightb=1 / open_gop=0 / weightp=2 / keyint=240 / keyint_min=23 / scenecut=40 / intra_refresh=0 / rc_lookahead=40 / rc=2pass / mbtree=1 / bitrate=2581 / ratetol=1.0 / qcomp=0.60 / qpmin=0 / qpmax=69 / qpstep=4 / cplxblur=20.0 / qblur=0.5 / ip_ratio=1.40 / aq=1:1.00
    Language                                 : English
    Default                                  : Yes
    Forced                                   : No
    
    Audio
    ID                                       : 2
    Format                                   : AC-3
    Format/Info                              : Audio Coding 3
    Mode extension                           : CM (complete main)
    Format settings, Endianness              : Big
    Codec ID                                 : A_AC3
    Duration                                 : 2h 21mn
    Bit rate mode                            : Constant
    Bit rate                                 : 448 Kbps
    Channel(s)                               : 6 channels
    Channel positions                        : Front: L C R, Side: L R, LFE
    Sampling rate                            : 48.0 KHz
    Bit depth                                : 16 bits
    Compression mode                         : Lossy
    Stream size                              : 454 MiB (15%)
    Default                                  : Yes
    Forced                                   : No








    SINGLE LINKS

    Code:
    http://uploaded.net/file/nkm31z2w/Fukrey.2013.720P.DVDRip.X264-Anon.mkv


    DOWNLOAD PARTS



    Code:
    http://rapidgator.net/file/c8967c0d73333f3195ae79049551cdd3/Fukrey.2013.720P.DVDRip.X264-Anon.mkv.001.html
    http://rapidgator.net/file/b6b3ef7577e925841239507e18ab190f/Fukrey.2013.720P.DVDRip.X264-Anon.mkv.002.html
    http://rapidgator.net/file/36491921adb08816fa75c450c1839dfd/Fukrey.2013.720P.DVDRip.X264-Anon.mkv.003.html
    http://rapidgator.net/file/8ec22ae4bf48b0708deb5161ef5107fa/Fukrey.2013.720P.DVDRip.X264-Anon.mkv.004.html
    http://rapidgator.net/file/25d00985c1ba459fa1d267bd3b5682b6/Fukrey.2013.720P.DVDRip.X264-Anon.mkv.005.html
    http://rapidgator.net/file/1d6f67986e2beefe2bf6827cef1ce226/Fukrey.2013.720P.DVDRip.X264-Anon.sub.html
    http://rapidgator.net/file/356342f309b7aa12f33484eb0b4c94b2/Fukrey.2013.720P.DVDRip.X264-Anon.idx.html

    Code:
    http://uploaded.net/file/1yxofme1/Fukrey.2013.720P.DVDRip.X264-Anon.mkv.001
    http://uploaded.net/file/q48a3onm/Fukrey.2013.720P.DVDRip.X264-Anon.mkv.002
    http://uploaded.net/file/ozuwt795/Fukrey.2013.720P.DVDRip.X264-Anon.mkv.003
    http://uploaded.net/file/l9exwx1f/Fukrey.2013.720P.DVDRip.X264-Anon.mkv.004
    http://uploaded.net/file/44ufz4bc/Fukrey.2013.720P.DVDRip.X264-Anon.mkv.005
    http://uploaded.net/file/7wvvkp5c/Fukrey.2013.720P.DVDRip.X264-Anon.sub
    http://uploaded.net/file/dcka62dt/Fukrey.2013.720P.DVDRip.X264-Anon.idx

 

 

Posting Permissions

  • You may not post new threads
  • You may not post replies
  • You may not post attachments
  • You may not edit your posts
  •