Results 1 to 1 of 1
  1. #1
    dR Rockers www.desirulez.net
    Join Date
    Aug 2011
    Posts
    5,859

    Cool Singam 2 (2013) - DVDRip - 720p - AVC - AC3 [6 CH] - [Dual-Audio] - [Tamil-Hindi - TT

    Follow us on Social Media










    Singam 2 *2013*
    "DVDRip - 720p - AVC - AC3 [6 CH] - [Dual-Audio] - [Tamil-Hindi]"
    ..: Team Telly ::..
    ..:: eXclusive - deep1007 ::..



    Media Info
    Code:
    General
    Complete name                            : Singam 2 [2013].mkv
    Format                                   : Matroska
    Format version                           : Version 4 / Version 2
    File size                                : 3.22 GiB
    Duration                                 : 2h 38mn
    Overall bit rate                         : 2 902 Kbps
    Encoded date                             : UTC 2013-08-21 05:08:52
    Writing application                      : mkvmerge
    Writing library                          : libebml
    
    Video
    ID                                       : 1
    Format                                   : AVC
    Format/Info                              : Advanced Video Codec
    Format profile                           : [email protected]
    Format settings, CABAC                   : Yes
    Format settings, ReFrames                : 4 frames
    Codec ID                                 : V_MPEG4/ISO/AVC
    Bit rate                                 : 2 438 Kbps
    Width                                    : 1 280 pixels
    Height                                   : 544 pixels
    Display aspect ratio                     : 2.35:1
    Frame rate mode                          : Variable
    Color space                              : YUV
    Chroma subsampling                       : 4:2:0
    Bit depth                                : 8 bits
    Scan type                                : Progressive
    Title                                    : Encoded By: deep1007 [Team Telly]
    Writing library                          : x264 core 130 r2273 b3065e6
    Language                                 : English
    Default                                  : Yes
    Forced                                   : No
    Color primaries                          : BT.709
    Transfer characteristics                 : BT.709
    Matrix coefficients                      : BT.709
    
    Audio #1
    ID                                       : 2
    Format                                   : AC-3
    Format/Info                              : Audio Coding 3
    Mode extension                           : CM (complete main)
    Format settings, Endianness              : Big
    Codec ID                                 : A_AC3
    Duration                                 : 2h 38mn
    Bit rate mode                            : Constant
    Bit rate                                 : 224 Kbps
    Channel(s)                               : 6 channels
    Channel positions                        : Front: L C R, Side: L R, LFE
    Sampling rate                            : 48.0 KHz
    Bit depth                                : 16 bits
    Compression mode                         : Lossy
    Stream size                              : 255 MiB (8%)
    Title                                    : deep1007 [Team Telly]
    Language                                 : Hindi
    Default                                  : No
    Forced                                   : Yes
    
    Audio #2
    ID                                       : 3
    Format                                   : AC-3
    Format/Info                              : Audio Coding 3
    Mode extension                           : CM (complete main)
    Format settings, Endianness              : Big
    Codec ID                                 : A_AC3
    Duration                                 : 2h 38mn
    Bit rate mode                            : Constant
    Bit rate                                 : 224 Kbps
    Channel(s)                               : 6 channels
    Channel positions                        : Front: L C R, Side: L R, LFE
    Sampling rate                            : 48.0 KHz
    Bit depth                                : 16 bits
    Compression mode                         : Lossy
    Stream size                              : 255 MiB (8%)
    Title                                    : deep1007 [Team Telly]
    Language                                 : Tamil
    Default                                  : No
    Forced                                   : No
    Screenshots












    SINGLE LINKS


    Code:
    http://extabit.com/file/2dud67q48sdhh/Singam.2.2013.DVDRip.720p.AVC.AC3.6CH.Dual-Audio-Tamil-Hindi-Team.Telly.eXclusive.deep1007.mkv
    Code:
    http://uploaded.net/file/lgn862ip/Singam.2.2013.DVDRip.720p.AVC.AC3.6CH.Dual-Audio-Tamil-Hindi-Team.Telly.eXclusive.deep1007.mkv


    700MB LINKS




    Code:
    http://extabit.com/file/2dud67pzrpu51/Singam.2.2013.DVDRip.720p.AVC.AC3.6CH.Dual-Audio-Tamil-Hindi-Team.Telly.eXclusive.deep1007.mkv.001
    http://extabit.com/file/2dud67pzrpu5h/Singam.2.2013.DVDRip.720p.AVC.AC3.6CH.Dual-Audio-Tamil-Hindi-Team.Telly.eXclusive.deep1007.mkv.002
    http://extabit.com/file/2dud67pzrpu5x/Singam.2.2013.DVDRip.720p.AVC.AC3.6CH.Dual-Audio-Tamil-Hindi-Team.Telly.eXclusive.deep1007.mkv.003
    http://extabit.com/file/2dud67q49f45h/Singam.2.2013.DVDRip.720p.AVC.AC3.6CH.Dual-Audio-Tamil-Hindi-Team.Telly.eXclusive.deep1007.mkv.004
    http://extabit.com/file/2dud67q49eodh/Singam.2.2013.DVDRip.720p.AVC.AC3.6CH.Dual-Audio-Tamil-Hindi-Team.Telly.eXclusive.deep1007.mkv.005


    Code:
    http://uploaded.net/file/jd1fkvzs/Singam.2.2013.DVDRip.720p.AVC.AC3.6CH.Dual-Audio-Tamil-Hindi-Team.Telly.eXclusive.deep1007.mkv.001
    http://uploaded.net/file/67obvcdw/Singam.2.2013.DVDRip.720p.AVC.AC3.6CH.Dual-Audio-Tamil-Hindi-Team.Telly.eXclusive.deep1007.mkv.002
    http://uploaded.net/file/k64rlyz5/Singam.2.2013.DVDRip.720p.AVC.AC3.6CH.Dual-Audio-Tamil-Hindi-Team.Telly.eXclusive.deep1007.mkv.003
    http://uploaded.net/file/unga8tld/Singam.2.2013.DVDRip.720p.AVC.AC3.6CH.Dual-Audio-Tamil-Hindi-Team.Telly.eXclusive.deep1007.mkv.004
    http://uploaded.net/file/5rnux820/Singam.2.2013.DVDRip.720p.AVC.AC3.6CH.Dual-Audio-Tamil-Hindi-Team.Telly.eXclusive.deep1007.mkv.005

    Code:
    http://lumfile.com/xukf7moi6fxh/Singam.2.2013.DVDRip.720p.AVC.AC3.6CH.Dual-Audio-Tamil-Hindi-Team.Telly.eXclusive.deep1007.mkv.001.html
    http://lumfile.com/6ltval3vkhjo/Singam.2.2013.DVDRip.720p.AVC.AC3.6CH.Dual-Audio-Tamil-Hindi-Team.Telly.eXclusive.deep1007.mkv.002.html
    http://lumfile.com/n7zw3yqkr64j/Singam.2.2013.DVDRip.720p.AVC.AC3.6CH.Dual-Audio-Tamil-Hindi-Team.Telly.eXclusive.deep1007.mkv.003.html
    http://lumfile.com/9xh2jdro5eqo/Singam.2.2013.DVDRip.720p.AVC.AC3.6CH.Dual-Audio-Tamil-Hindi-Team.Telly.eXclusive.deep1007.mkv.004.html
    http://lumfile.com/e8wivp6ttjw1/Singam.2.2013.DVDRip.720p.AVC.AC3.6CH.Dual-Audio-Tamil-Hindi-Team.Telly.eXclusive.deep1007.mkv.005.html

 

 

Posting Permissions

  • You may not post new threads
  • You may not post replies
  • You may not post attachments
  • You may not edit your posts
  •