Results 1 to 1 of 1
  1. #1
    Hot Member www.desirulez.net
    Join Date
    Sep 2009
    Posts
    1,215

    Thumbs up Raanjhanaa (2013) DVD Rip Xvid 1 CD - Anon

    Follow us on Social Media









    Code:
    General
    Complete name                            : Raanjhanaa (2013) DVD Rip Xvid 1 CD - Anon\Raanjhanaa (2013) DVD Rip Xvid 1 CD - Anon.avi
    Format                                   : AVI
    Format/Info                              : Audio Video Interleave
    File size                                : 697 MiB
    Duration                                 : 2h 20mn
    Overall bit rate                         : 695 Kbps
    
    Video
    ID                                       : 0
    Format                                   : MPEG-4 Visual
    Format profile                           : Advanced [email protected]
    Format settings, BVOP                    : 2
    Format settings, QPel                    : No
    Format settings, GMC                     : No warppoints
    Format settings, Matrix                  : Default (H.263)
    Codec ID                                 : XVID
    Codec ID/Hint                            : XviD
    Duration                                 : 2h 20mn
    Bit rate                                 : 589 Kbps
    Width                                    : 640 pixels
    Height                                   : 272 pixels
    Display aspect ratio                     : 2.35:1
    Frame rate                               : 23.976 fps
    Color space                              : YUV
    Chroma subsampling                       : 4:2:0
    Bit depth                                : 8 bits
    Scan type                                : Progressive
    Compression mode                         : Lossy
    Bits/(Pixel*Frame)                       : 0.141
    Stream size                              : 591 MiB (85%)
    Writing library                          : XviD 1.2.1 (UTC 2008-12-04)
    
    Audio
    ID                                       : 1
    Format                                   : MPEG Audio
    Format version                           : Version 1
    Format profile                           : Layer 3
    Mode                                     : Joint stereo
    Mode extension                           : MS Stereo
    Codec ID                                 : 55
    Codec ID/Hint                            : MP3
    Duration                                 : 2h 20mn
    Bit rate mode                            : Constant
    Bit rate                                 : 96.0 Kbps
    Channel(s)                               : 2 channels
    Sampling rate                            : 32.0 KHz
    Compression mode                         : Lossy
    Stream size                              : 96.2 MiB (14%)
    Alignment                                : Aligned on interleaves
    Interleave, duration                     : 36 ms (0.86 video frame)
    Interleave, preload duration             : 684 ms
    Title                                    : VTS_03_1 T80 3_2ch 448Kbps DELAY 0ms
    Writing library                          : LAME3.99r
    Encoding settings                        : -m j -V 4 -q 2 -lowpass 15.1 -b 96-m j -V 4 -q 2 -lowpass 15.1 -b 96-m j -V 4 -q 2 -lowpass 15.1 -b 96







    Code:
    http://ul.to/pva69uww
    
    http://akafile.com/auc48bj7gd1v
    
    http://junocloud.me/s2b8auvot46s/Raanjhanaa__2013__DVD_Rip_Xvid_1_CD_-_Anon.avi.html
    
    http://megabitshare.com/1c9sluipn2zr/Raanjhanaa (2013) DVD Rip Xvid 1 CD - Anon.rar
    
    http://uploadinc.com/km1ynr1oc9ue.html



 

 

Posting Permissions

  • You may not post new threads
  • You may not post replies
  • You may not post attachments
  • You may not edit your posts
  •