Results 1 to 1 of 1
  1. #1
    dR Rockers www.desirulez.net
    Join Date
    Aug 2011
    Posts
    5,859

    Cool Nasha (2013) - 720p - HDRip - AVC - AC3 6.CH - [Team TT EXclusive]

    Follow us on Social Media











    Code:
    General
    Complete name                            : Nasha [2013].mkv
    Format                                   : Matroska
    Format version                           : Version 2
    File size                                : 2.49 GiB
    Duration                                 : 1h 53mn
    Overall bit rate mode                    : Constant
    Overall bit rate                         : 3 139 Kbps
    Encoded date                             : UTC 2013-08-19 15:39:24
    
    Video
    ID                                       : 2
    Format                                   : AVC
    Format/Info                              : Advanced Video Codec
    Format profile                           : [email protected]
    Format settings, CABAC                   : Yes
    Format settings, ReFrames                : 3 frames
    Codec ID                                 : V_MPEG4/ISO/AVC
    Duration                                 : 1h 53mn
    Bit rate mode                            : Constant
    Bit rate                                 : 2 693 Kbps
    Nominal bit rate                         : 3 000 Kbps / 3 000 Kbps
    Width                                    : 1 280 pixels
    Height                                   : 544 pixels
    Display aspect ratio                     : 2.35:1
    Frame rate mode                          : Constant
    Frame rate                               : 23.976 fps
    Standard                                 : NTSC
    Color space                              : YUV
    Chroma subsampling                       : 4:2:0
    Bit depth                                : 8 bits
    Scan type                                : MBAFF
    Bits/(Pixel*Frame)                       : 0.161
    Stream size                              : 2.14 GiB (86%)
    Writing library                          : x264 core 114
    Default                                  : Yes
    Forced                                   : No
    Color primaries                          : BT.709
    Transfer characteristics                 : BT.709
    Matrix coefficients                      : BT.709
    
    Audio
    ID                                       : 1
    Format                                   : AC-3
    Format/Info                              : Audio Coding 3
    Mode extension                           : CM (complete main)
    Format settings, Endianness              : Big
    Codec ID                                 : A_AC3
    Duration                                 : 1h 53mn
    Bit rate mode                            : Constant
    Bit rate                                 : 384 Kbps
    Channel(s)                               : 6 channels
    Channel positions                        : Front: L C R, Side: L R, LFE
    Sampling rate                            : 48.0 KHz
    Bit depth                                : 16 bits
    Compression mode                         : Lossy
    Stream size                              : 312 MiB (12%)
    Default                                  : Yes
    Forced                                   : No











    SINGLE LINKS
    Code:
    http://extabit.com/file/28x2he6ibj6c2/Nasha.2013.HD.WEBRip.720p.AVC.AC3.6.CH.Team.Telly.eXclusive.deep1007.mkv
    Code:
    http://uploaded.net/file/dkmr6w7f/Nasha.2013.HD.WEBRip.720p.AVC.AC3.6.CH.Team.Telly.eXclusive.deep1007.mkv
    Code:
    http://lumfile.com/3pulybq08je9/Nasha.2013.HD.WEBRip.720p.AVC.AC3.6.CH.Team.Telly.eXclusive.deep1007.mkv.html
    700MB LINKS

    Code:
    http://extabit.com/file/28x2he6ibj376/Nasha.2013.HD.WEBRip.720p.AVC.AC3.6.CH.Team.Telly.eXclusive.deep1007.mkv.001
    http://extabit.com/file/28x2he6ibj67m/Nasha.2013.HD.WEBRip.720p.AVC.AC3.6.CH.Team.Telly.eXclusive.deep1007.mkv.002
    http://extabit.com/file/28x2he6ibj34i/Nasha.2013.HD.WEBRip.720p.AVC.AC3.6.CH.Team.Telly.eXclusive.deep1007.mkv.003
    http://extabit.com/file/28x2he6ibj342/Nasha.2013.HD.WEBRip.720p.AVC.AC3.6.CH.Team.Telly.eXclusive.deep1007.mkv.004
    Code:
    http://uploaded.net/file/qyb9xv8w/Nasha.2013.HD.WEBRip.720p.AVC.AC3.6.CH.Team.Telly.eXclusive.deep1007.mkv.001
    http://uploaded.net/file/z516mqzt/Nasha.2013.HD.WEBRip.720p.AVC.AC3.6.CH.Team.Telly.eXclusive.deep1007.mkv.002
    http://uploaded.net/file/3b3nhz87/Nasha.2013.HD.WEBRip.720p.AVC.AC3.6.CH.Team.Telly.eXclusive.deep1007.mkv.003
    http://uploaded.net/file/jdbbrq1m/Nasha.2013.HD.WEBRip.720p.AVC.AC3.6.CH.Team.Telly.eXclusive.deep1007.mkv.004
    Code:
    http://lumfile.com/1h64jvidutbs/Nasha.2013.HD.WEBRip.720p.AVC.AC3.6.CH.Team.Telly.eXclusive.deep1007.mkv.001.html
    http://lumfile.com/wwhu95ibgnda/Nasha.2013.HD.WEBRip.720p.AVC.AC3.6.CH.Team.Telly.eXclusive.deep1007.mkv.002.html
    http://lumfile.com/wyccheanw8sq/Nasha.2013.HD.WEBRip.720p.AVC.AC3.6.CH.Team.Telly.eXclusive.deep1007.mkv.003.html
    http://lumfile.com/532gfw6r7srf/Nasha.2013.HD.WEBRip.720p.AVC.AC3.6.CH.Team.Telly.eXclusive.deep1007.mkv.004.html

 

 

Posting Permissions

  • You may not post new threads
  • You may not post replies
  • You may not post attachments
  • You may not edit your posts
  •