Results 1 to 1 of 1
  1. #1
    dR Rockers www.desirulez.net
    Join Date
    Aug 2011
    Posts
    5,859

    Cool Daruvu - Jeene Nahi Doonga (2013] - 700MB - 1CDRip - BDRip - XviD - HINDI - Team TT

    Follow us on Social Media











    Code:
    General
    Complete name                            : Daruvu - Jeene Nahi Doonga [2013].avi
    Format                                   : AVI
    Format/Info                              : Audio Video Interleave
    File size                                : 695 MiB
    Duration                                 : 2h 41mn
    Overall bit rate mode                    : Variable
    Overall bit rate                         : 601 Kbps
    Writing application                      : MEncoder r33883
    Writing library                          : MPlayer
    
    Video
    ID                                       : 0
    Format                                   : MPEG-4 Visual
    Format profile                           : [email protected]
    Format settings, BVOP                    : No
    Format settings, QPel                    : No
    Format settings, GMC                     : No warppoints
    Format settings, Matrix                  : Default (H.263)
    Codec ID                                 : XVID
    Codec ID/Hint                            : XviD
    Duration                                 : 2h 41mn
    Bit rate                                 : 508 Kbps
    Width                                    : 640 pixels
    Height                                   : 272 pixels
    Display aspect ratio                     : 2.35:1
    Frame rate                               : 29.970 fps
    Color space                              : YUV
    Chroma subsampling                       : 4:2:0
    Bit depth                                : 8 bits
    Scan type                                : Progressive
    Compression mode                         : Lossy
    Bits/(Pixel*Frame)                       : 0.097
    Stream size                              : 587 MiB (84%)
    Writing library                          : XviD 63
    
    Audio
    ID                                       : 1
    Format                                   : MPEG Audio
    Format version                           : Version 1
    Format profile                           : Layer 3
    Mode                                     : Joint stereo
    Codec ID                                 : 55
    Codec ID/Hint                            : MP3
    Duration                                 : 2h 41mn
    Bit rate mode                            : Variable
    Bit rate                                 : 80.0 Kbps
    Channel(s)                               : 2 channels
    Sampling rate                            : 44.1 KHz
    Compression mode                         : Lossy
    Stream size                              : 92.3 MiB (13%)
    Alignment                                : Aligned on interleaves
    Interleave, duration                     : 26 ms (0.78 video frame)
    Interleave, preload duration             : 302 ms
    Writing library                          : LAME3.98.4





    SINGLE LINKS
    Code:
    http://extabit.com/file/28x2he6e1b8jm/Daruvu.Jeene.Nahi.Doonga.2013.HINDI.DUBBED.BDRip.1CD.XviD.Team.Telly.eXclusive.deep1007.avi

    Code:
    http://lumfile.com/3vdkeepjxvyc/Daruvu.Jeene.Nahi.Doonga.2013.HINDI.DUBBED.BDRip.1CD.XviD.Team.Telly.eXclusive.deep1007.avi.html

 

 

Posting Permissions

  • You may not post new threads
  • You may not post replies
  • You may not post attachments
  • You may not edit your posts
  •