Results 1 to 1 of 1
  1. #1
    dR Rockers www.desirulez.net
    Join Date
    Aug 2011
    Posts
    5,859

    Cool Once Upon A Time In Mumbaai Dobara (2013) 1GB XViD Scr AC3 ESubs{ExD-XMR}

    Follow us on Social Media











    Code:
    Format : AVI
    Format/Info : Audio Video Interleave
    File size : 1 023 MiB
    Duration : 2h 26mn
    Overall bit rate : 978 Kbps
    Writing application : VirtualDubMod 1.5.10.2 (build 2542/release)
    Writing library : VirtualDubMod build 2542/release
    
    Video
    ID : 0
    Format : MPEG-4 Visual
    Format profile : Advanced [email protected]
    Format settings, BVOP : 2
    Format settings, QPel : Yes
    Format settings, GMC : No warppoints
    Format settings, Matrix : Default (MPEG)
    Codec ID : XVID
    Codec ID/Hint : XviD
    Duration : 2h 26mn
    Bit rate : 777 Kbps
    Width : 640 pixels
    Height : 272 pixels
    Display aspect ratio : 2.35:1
    Frame rate : 23.976 fps
    Color space : YUV
    Chroma subsampling : 4:2:0
    Bit depth : 8 bits
    Scan type : Progressive
    Compression mode : Lossy
    Bits/(Pixel*Frame) : 0.186
    Stream size : 812 MiB (79%)
    Writing library : XviD 1.2.1 (UTC 2008-12-04)
    
    Audio
    ID : 1
    Format : AC-3
    Format/Info : Audio Coding 3
    Mode extension : CM (complete main)
    Codec ID : 2000
    Duration : 2h 26mn
    Bit rate mode : Constant
    Bit rate : 192 Kbps
    Channel(s) : 2 channels
    Channel positions : Front: L R
    Sampling rate : 48.0 KHz
    Bit depth : 16 bits
    Compression mode : Lossy
    Stream size : 201 MiB (20%)
    Alignment : Split accross interleaves
    Interleave, duration : 42 ms (1.00 video frame)
    Interleave, preload duration : 500 ms















    SINGLE LINKS

    Code:
    http://extabit.com/file/2dud6anw6d4v7/Once.Upon.in.Mumbaai.Dobara.(2013).1GB.XViD.AC3.avi
    http://extabit.com/file/2dud6anw6db43/Once.Upon.in.Mumbaai.Dobara.(2013).1GB.XViD.AC3.srt
    Code:
    http://lumfile.com/qasuucual7e3/Once.Upon.in.Mumbaai.Dobara.(2013).1GB.XViD.AC3.avi.html
    http://lumfile.com/3rus416hkvcp/Once.Upon.in.Mumbaai.Dobara.(2013).1GB.XViD.AC3.srt.html

 

 

Posting Permissions

  • You may not post new threads
  • You may not post replies
  • You may not post attachments
  • You may not edit your posts
  •