Results 1 to 1 of 1
  1. #1
    Hot Member www.desirulez.net
    Join Date
    Feb 2011
    Location
    Bulletproof IP
    Posts
    1,189

    Default Once Upon A Time In Mumbai Dobaara (2013) MC DVDScr XviD AC3 ESubs 1GB {ExD-XMR}

    Follow us on Social Media





    Once Upon A Time In Mumbai Dobaara
    (2013)
    MC DVDScr XviD AC3 ESubs 1GB {ExD-XMR}



    Code:
    Format : AVI
    Format/Info : Audio Video Interleave
    File size : 1023 MiB
    Duration : 2h 26mn
    Overall bit rate : 978 Kbps
    Writing application : VirtualDubMod 1.5.10.2 (build 2542/release)
    Writing library : VirtualDubMod build 2542/release
    
    Video
    ID : 0
    Format : MPEG-4 Visual
    Format profile : Advanced [email protected]
    Format settings, BVOP : 2
    Format settings, QPel : Yes
    Format settings, GMC : No warppoints
    Format settings, Matrix : Default (MPEG)
    Codec ID : XVID
    Codec ID/Hint : XviD
    Duration : 2h 26mn
    Bit rate : 777 Kbps
    Width : 640 pixels
    Height : 272 pixels
    Display aspect ratio : 2.35:1
    Frame rate : 23.976 fps
    Color space : YUV
    Chroma subsampling : 4:2:0
    Bit depth : 8 bits
    Scan type : Progressive
    Compression mode : Lossy
    Bits/(Pixel*Frame) : 0.186
    Stream size : 812 MiB (79%)
    Writing library : XviD 1.2.1 (UTC 2008-12-04)
    
    Audio
    ID : 1
    Format : AC-3
    Format/Info : Audio Coding 3
    Mode extension : CM (complete main)
    Codec ID : 2000
    Duration : 2h 26mn
    Bit rate mode : Constant
    Bit rate : 192 Kbps
    Channel(s) : 2 channels
    Channel positions : Front: L R
    Sampling rate : 48.0 KHz
    Bit depth : 16 bits
    Compression mode : Lossy
    Stream size : 201 MiB (20%)
    Alignment : Split accross interleaves
    Interleave, duration : 42 ms (1.00 video frame)
    Interleave, preload duration : 500 ms
    Ripper -=Rangeela=-
    Source Movie Club
    Subtitle English


    *Screenshots*






















    All Credits Goes To Rangeela @ ExD-XMR (Thanks)

    Size: 1023.21 MB

    Code:
    http://turbobit.net/2l6l0fq4hs6r/OUATIM2-MC-DVDScr-XviD-AC3-ExD-XMR.avi.html
    or
    http://hugefiles.net/nivt9zu55kke
    
    ..::Subtitles::..
    http://hugefiles.net/8djooogzer81

 

 

Posting Permissions

  • You may not post new threads
  • You may not post replies
  • You may not post attachments
  • You may not edit your posts
  •