Results 1 to 1 of 1
  1. #1
    Hot Member www.desirulez.net
    Join Date
    Feb 2013
    Posts
    1,015

    Cool Mr Perfect (2011) 720p BRRip x264 (Dual Audio) (Telugu Hindi) Mafiaking - Team EXD

    Follow us on Social Media









    IMDB Rating: 6.7/10.0

    GENRE: Action | Drama | Family



    General
    Unique ID : 207302103448313547620308656550335768249 (0x9BF4EECFAFF31C678275107EF76C66B9)
    Complete name : Mr Perfect (2011) 720p BRRip x264 [Dual-Audio] [Telugu+Hindi] - Mafiaking [Team EXD].mkv
    Format : Matroska
    Format version : Version 2
    File size : 1.02 GiB
    Duration : 2h 26mn
    Overall bit rate : 1 003 Kbps
    Movie name : Mr Perfect (2011) 720p BRRip x264 [Dual-Audio] [Telugu+Hindi] - Mafiaking [Team EXD]
    Encoded date : UTC 2013-08-05 08:41:47
    Writing application : mkvmerge v5.7.0 ('The Whirlwind') built on Jul 8 2012 20:08:51
    Writing library : libebml v1.2.3 + libmatroska v1.3.0







    Video
    ID : 1
    Format : AVC
    Format/Info : Advanced Video Codec
    Format profile : [email protected]
    Format settings, CABAC : Yes
    Format settings, ReFrames : 8 frames
    Muxing mode : Header stripping
    Codec ID : V_MPEG4/ISO/AVC
    Duration : 2h 26mn
    Bit rate : 842 Kbps
    Width : 1 280 pixels
    Height : 544 pixels
    Display aspect ratio : 2.35:1
    Frame rate mode : Constant
    Frame rate : 24.000 fps
    Color space : YUV
    Chroma subsampling : 4:2:0
    Bit depth : 8 bits
    Scan type : Progressive
    Bits/(Pixel*Frame) : 0.050
    Stream size : 860 MiB (82%)
    Title : Mafiaking

    Language : Telugu
    Default : Yes
    Forced : No





    Audio #1
    ID : 2
    Format : MPEG Audio
    Format version : Version 1
    Format profile : Layer 3
    Mode : Joint stereo
    Mode extension : MS Stereo
    Muxing mode : Header stripping
    Codec ID : A_MPEG/L3
    Codec ID/Hint : MP3
    Duration : 2h 26mn
    Bit rate mode : Constant
    Bit rate : 80.0 Kbps
    Channel(s) : 2 channels
    Sampling rate : 32.0 KHz
    Compression mode : Lossy
    Stream size : 83.6 MiB (8%)
    Title : Mafiaking
    Writing library : LAME3.99
    Language : Hindi
    Default : Yes
    Forced : No





    Audio #2
    ID : 3
    Format : MPEG Audio
    Format version : Version 1
    Format profile : Layer 3
    Mode : Joint stereo
    Mode extension : MS Stereo
    Muxing mode : Header stripping
    Codec ID : A_MPEG/L3
    Codec ID/Hint : MP3
    Duration : 2h 26mn
    Bit rate mode : Constant
    Bit rate : 80.0 Kbps
    Channel(s) : 2 channels
    Sampling rate : 32.0 KHz
    Compression mode : Lossy
    Stream size : 83.6 MiB (8%)
    Title : Mafiaking
    Writing library : LAME3.99
    Language : Telugu
    Default : No
    Forced : No















    [ sample ]

    Code:
    http://www.arabloads.com/kezo3mj19msd/SaMple-Mr_Perfect_(2011)_720p_BRRip_x264_[Dual-Audio]_[Telugu+Hindi]_-_Mafiaking_[Team_EXD].mkv.html


    [ DOWNLOAD ]


    [ uploadinc ]

    Code:
    http://uploadinc.com/ifafs2ejaxc4.html
    [ arabloads ]

    Code:
    http://www.arabloads.com/lpnib58ojv24/Mr_Perfect_(2011)_720p_BRRip_x264_[Dual-Audio]_[Telugu+Hindi]_-_Mafiaking_[Team_EXD].mkv.html
    [ hugefiles ]

    Code:
    http://hugefiles.net/mdnf6cujiolt
    [ filesflash ]

    Code:
    http://filesflash.com/tjis931q
    [ filesflash for indian users ]

    Code:
    http://filesflash:8001.com/tjis931q
    [ speedshare ]

    Code:
    http://speedshare.eu/p7ym09hpvlyb/Mr_Perfect_(2011)_720p_BRRip_x264_[Dual-Audio]_[Telugu+Hindi]_-_Mafiaking_[Team_EXD].mkv.html














 

 

Posting Permissions

  • You may not post new threads
  • You may not post replies
  • You may not post attachments
  • You may not edit your posts
  •