Results 1 to 1 of 1
  1. #1
    Hot Member www.desirulez.net
    Join Date
    Feb 2013
    Posts
    1,015

    Cool Mr Perfect (2011) 480p BRRip (445 MB) x264 (Dual Audio) (Telugu Hindi) Mafiaking -Team EXD

    Follow us on Social Media










    IMDB Rating: 6.7/10.0

    GENRE: Action | Drama | Family



    General
    Unique ID : 247355250563731995482523774356087827349 (0xBA16E36DEF1B79E2969076DF5A3AEB95)
    Complete name : Mr Perfect (2011) 480p BRRip - [445 MB] x264 [Dual-Audio][Telugu+Hindi] - Mafiaking [Team EXD].mkv
    Format : Matroska
    Format version : Version 2
    File size : 444 MiB
    Duration : 2h 26mn
    Overall bit rate : 425 Kbps
    Movie name : Mr Perfect (2011) 480p BRRip - [445 MB] x264 [Dual-Audio][Telugu+Hindi] - Mafiaking [Team EXD]
    Encoded date : UTC 2013-08-06 06:56:30
    Writing application : mkvmerge v5.7.0 ('The Whirlwind') built on Jul 8 2012 20:08:51
    Writing library : libebml v1.2.3 + libmatroska v1.3.0






    Video
    ID : 1
    Format : AVC
    Format/Info : Advanced Video Codec
    Format profile : [email protected]
    Format settings, CABAC : Yes
    Format settings, ReFrames : 4 frames
    Muxing mode : Header stripping
    Codec ID : V_MPEG4/ISO/AVC
    Duration : 2h 26mn
    Bit rate : 360 Kbps
    Width : 720 pixels
    Height : 306 pixels
    Display aspect ratio : 2.35:1
    Frame rate mode : Constant
    Frame rate : 24.000 fps
    Color space : YUV
    Chroma subsampling : 4:2:0
    Bit depth : 8 bits
    Scan type : Progressive
    Bits/(Pixel*Frame) : 0.068
    Stream size : 368 MiB (83%)
    Title : Mafiaking

    Language : Telugu
    Default : Yes
    Forced : No





    Audio #1
    ID : 2
    Format : MPEG Audio
    Format version : Version 2
    Format profile : Layer 3
    Mode : Joint stereo
    Mode extension : MS Stereo
    Muxing mode : Header stripping
    Codec ID : A_MPEG/L3
    Codec ID/Hint : MP3
    Duration : 2h 26mn
    Bit rate mode : Constant
    Bit rate : 32.0 Kbps
    Channel(s) : 2 channels
    Sampling rate : 16.0 KHz
    Compression mode : Lossy
    Stream size : 33.4 MiB (8%)
    Title : Mafiaking
    Writing library : LAME3.99.5
    Language : Hindi
    Default : Yes
    Forced : No





    Audio #2
    ID : 3
    Format : MPEG Audio
    Format version : Version 2
    Format profile : Layer 3
    Mode : Joint stereo
    Mode extension : MS Stereo
    Muxing mode : Header stripping
    Codec ID : A_MPEG/L3
    Codec ID/Hint : MP3
    Duration : 2h 26mn
    Bit rate mode : Constant
    Bit rate : 32.0 Kbps
    Channel(s) : 2 channels
    Sampling rate : 16.0 KHz
    Compression mode : Lossy
    Stream size : 33.4 MiB (8%)
    Title : Mafiaking
    Writing library : LAME3.99.5
    Language : Telugu
    Default : No
    Forced : No















    [ sample ]

    Code:
    http://www.arabloads.com/0uxg2fmpw4a0/SaMple-Mr_Perfect_(2011)_480p_BRRip_-_[445_MB]_x264_[Dual-Audio][Telugu+Hindi]_-_Mafiaking_[Team_EXD].mkv.html


    [ DOWNLOAD ]


    [ uploadinc ]

    Code:
    http://uploadinc.com/u5doxobscl2x.html
    [ arabloads ]

    Code:
    http://www.arabloads.com/u0jcusg63r1l/Mr_Perfect_(2011)_480p_BRRip_-_[445_MB]_x264_[Dual-Audio][Telugu+Hindi]_-_Mafiaking_[Team_EXD].mkv.html
    [ hugefiles ]

    Code:
    http://hugefiles.net/tk6zvti96qjw
    [ filesflash ]

    Code:
    http://filesflash.com/3244bnzr
    [ filesflash for indian users ]

    Code:
    http://filesflash:8001.com/3244bnzr
    [ speedshare ]

    Code:
    http://speedshare.eu/1q20sjmt379a/Mr_Perfect_(2011)_480p_BRRip_-_[445_MB]_x264_[Dual-Audio][Telugu+Hindi]_-_Mafiaking_[Team_EXD].mkv.html














 

 

Posting Permissions

  • You may not post new threads
  • You may not post replies
  • You may not post attachments
  • You may not edit your posts
  •