Results 1 to 1 of 1
  1. #1
    dR Rockers www.desirulez.net
    Join Date
    Jun 2011
    Posts
    2,793

    Thumbs up Jeene Nahi Doonga [2013] HINDI DUBBED - WEBRip - 1CD - XviD - [Team Telly]

    Follow us on Social Media








    Media Info

    General
    Complete name : Jeene Nahi Doonga [2013].avi
    Format : AVI
    Format/Info : Audio Video Interleave
    File size : 716 MiB
    Duration : 2h 13mn
    Overall bit rate : 749 Kbps

    Video
    ID : 0
    Format : MPEG-4 Visual
    Format profile : [email protected]
    Format settings, BVOP : No
    Format settings, QPel : No
    Format settings, GMC : No warppoints
    Format settings, Matrix : Default (H.263)
    Codec ID : XVID
    Codec ID/Hint : XviD
    Duration : 2h 13mn
    Bit rate : 635 Kbps
    Width : 640 pixels
    Height : 272 pixels
    Display aspect ratio : 2.35:1
    Frame rate : 29.970 fps
    Original frame rate : 29.000 fps
    Color space : YUV
    Chroma subsampling : 4:2:0
    Bit depth : 8 bits
    Scan type : Progressive
    Compression mode : Lossy
    Bits/(Pixel*Frame) : 0.122
    Stream size : 607 MiB (85%)
    Writing library : XviD 1.2.1 (UTC 2008-12-04)

    Audio
    ID : 1
    Format : MPEG Audio
    Format version : Version 1
    Format profile : Layer 3
    Mode : Joint stereo
    Mode extension : MS Stereo
    Codec ID : 55
    Codec ID/Hint : MP3
    Duration : 2h 13mn
    Bit rate mode : Constant
    Bit rate : 96.0 Kbps
    Channel(s) : 2 channels
    Sampling rate : 44.1 KHz
    Compression mode : Lossy
    Stream size : 91.8 MiB (13%)
    Alignment : Aligned on interleaves
    Interleave, duration : 26 ms (0.78 video frame)
    Writing library : LAME3.98.2
    Screenshots















    (Resume Support)
    Code:
    http://www.arabloads.com/n960lqm2oeg2/Jeene_Nahi_Doonga_deep.avi.html

    (Resume Support/No Waiting)
    Code:
    http://www.queenshare.com/bntdipq33nn3



    Code:
    http://turbobit.net/f2f2rmvnhwt0.html

 

 

Posting Permissions

  • You may not post new threads
  • You may not post replies
  • You may not post attachments
  • You may not edit your posts
  •