Results 1 to 1 of 1
  1. #1
    dR Rockers www.desirulez.net
    Join Date
    Aug 2011
    Posts
    5,859

    Cool Ghanchakkar (2013) - 4.37GB - 720p - DVDRip - x264 - Untouched AC3 - E.Sub [Team ExD]

    Follow us on Social Media












    Code:
    http://www.imdb.com/title/tt2246724/
    
    Sanju, Pandit and Idris rob a bank and decide to share the money. 
    
    
    General
    Format                                   : Matroska
    Format version                           : Version 4 / Version 2
    File size                                : 4.34 GiB
    Duration                                 : 2h 15mn
    Overall bit rate                         : 4 601 Kbps
    Movie name                               : ExD - Ghanchakkar (2013)
    
    Video
    Format                                   : AVC
    Duration                                 : 2h 15mn
    Bit rate                                 : 4 183 Kbps
    Width                                    : 1 280 pixels
    Height                                   : 544 pixels
    Display aspect ratio                     : 2.35:1
    Frame rate mode                          : Constant
    Frame rate                               : 23.976 fps
    Color space                              : YUV
    Chroma subsampling                       : 4:2:0
    Bit depth                                : 8 bits
    Scan type                                : Progressive
    Bits/(Pixel*Frame)                       : 0.251
    Stream size                              : 3.83 GiB (88%)
    
    Audio
    Format                                   : AC-3
    Duration                                 : 2h 15mn
    Bit rate mode                            : Constant
    Bit rate                                 : 448 Kbps
    Channel(s)                               : 6 channels
    Channel positions                        : Front: L C R, Side: L R, LFE
    Sampling rate                            : 48.0 KHz
    Bit depth                                : 16 bits
    Compression mode                         : Lossy
    Delay relative to video                  : 15ms
    Stream size                              : 433 MiB (10%)
    
    Text
    Format                                   : VobSub
    Language                                 : Hindi






    SINGLE LINKS
    Code:
    http://extabit.com/file/28x2hfx9x6fl7/Ghanchakkar.(2013).720p.DVDRip.x264.Untouched.AC3.E.Sub.[Team.ExD.ExclusivE].mkv
    Code:
    http://lumfile.com/7va54kxjvq4p/Ghanchakkar.(2013).720p.DVDRip.x264.Untouched.AC3.E.Sub.[Team.ExD.ExclusivE].mkv.html


    1GB LINKS


    Code:
    http://extabit.com/file/28x2hfx5pghfv/Ghanchakkar.(2013).720p.DVDRip.x264.Untouched.AC3.E.Sub.[Team.ExD.ExclusivE].mkv.001
    http://extabit.com/file/28x2hfx5pg7x7/Ghanchakkar.(2013).720p.DVDRip.x264.Untouched.AC3.E.Sub.[Team.ExD.ExclusivE].mkv.002
    http://extabit.com/file/28x2hfx5q34uj/Ghanchakkar.(2013).720p.DVDRip.x264.Untouched.AC3.E.Sub.[Team.ExD.ExclusivE].mkv.003
    http://extabit.com/file/28x2hfx5ou9sb/Ghanchakkar.(2013).720p.DVDRip.x264.Untouched.AC3.E.Sub.[Team.ExD.ExclusivE].mkv.004
    http://extabit.com/file/28x2hfx5pgkkb/Ghanchakkar.(2013).720p.DVDRip.x264.Untouched.AC3.E.Sub.[Team.ExD.ExclusivE].mkv.005
    Code:
    http://lumfile.com/jsurjuoghtin/Ghanchakkar.(2013).720p.DVDRip.x264.Untouched.AC3.E.Sub.[Team.ExD.ExclusivE].mkv.001.html
    http://lumfile.com/oak3ckqqibie/Ghanchakkar.(2013).720p.DVDRip.x264.Untouched.AC3.E.Sub.[Team.ExD.ExclusivE].mkv.002.html
    http://lumfile.com/fw5rubveksdc/Ghanchakkar.(2013).720p.DVDRip.x264.Untouched.AC3.E.Sub.[Team.ExD.ExclusivE].mkv.003.html
    http://lumfile.com/jxm91ekk3b17/Ghanchakkar.(2013).720p.DVDRip.x264.Untouched.AC3.E.Sub.[Team.ExD.ExclusivE].mkv.004.html
    http://lumfile.com/5tckoc2ndkuy/Ghanchakkar.(2013).720p.DVDRip.x264.Untouched.AC3.E.Sub.[Team.ExD.ExclusivE].mkv.005.html

 

 

Posting Permissions

  • You may not post new threads
  • You may not post replies
  • You may not post attachments
  • You may not edit your posts
  •