Results 1 to 1 of 1
  1. #1
    dR Rockers www.desirulez.net
    Join Date
    Aug 2011
    Posts
    5,859

    Cool Ghanchakkar (2013) ANAMORPHIC WIDESCREEN - DVDRip - x264 - Untouched AC3 - E.Sub -ExD

    Follow us on Social Media











    Code:
    http://www.imdb.com/title/tt2246724/
    
    Sanju, Pandit and Idris rob a bank and decide to share the money. 
    
    
    General
    Format                                   : Matroska
    Format version                           : Version 4 / Version 2
    File size                                : 2.19 GiB
    Duration                                 : 2h 15mn
    Overall bit rate                         : 2 317 Kbps
    
    
    Video
    Format                                   : AVC
    Duration                                 : 2h 15mn
    Bit rate                                 : 1 878 Kbps
    Width                                    : 852 pixels
    Height                                   : 360 pixels
    Display aspect ratio                     : 2.35:1
    Frame rate mode                          : Constant
    Frame rate                               : 23.976 fps
    Color space                              : YUV
    Chroma subsampling                       : 4:2:0
    Bit depth                                : 8 bits
    Scan type                                : Progressive
    Bits/(Pixel*Frame)                       : 0.255
    Stream size                              : 1.72 GiB (79%)
    
    Audio
    Format                                   : AC-3
    Duration                                 : 2h 15mn
    Bit rate mode                            : Constant
    Bit rate                                 : 448 Kbps
    Channel(s)                               : 6 channels
    Channel positions                        : Front: L C R, Side: L R, LFE
    Sampling rate                            : 48.0 KHz
    Bit depth                                : 16 bits
    Compression mode                         : Lossy
    Delay relative to video                  : 15ms
    Stream size                              : 433 MiB (19%)
    
    Text
    Format                                   : VobSub
    Language                                 : English









    SINGLE LINKS


    Code:
    http://extabit.com/file/28x2hfx5mcmzf/Ghanchakkar.(2013).ANAMORPHIC.WIDESCREEN.DVDRip.x264.Untouched.AC3.E.Sub.[Team.ExD.ExclusivE].mkv

    Code:
    http://lumfile.com/neuyov4w9mng/Ghanchakkar.(2013).ANAMORPHIC.WIDESCREEN.DVDRip.x264.Untouched.AC3.E.Sub.[Team.ExD.ExclusivE].mkv.html

 

 

Posting Permissions

  • You may not post new threads
  • You may not post replies
  • You may not post attachments
  • You may not edit your posts
  •