Results 1 to 1 of 1
  1. #1
    dR Rockers www.desirulez.net
    Join Date
    Aug 2011
    Posts
    5,859

    Cool Ghanchakkar (2013) - 1CD - DVDRip - x264 - 5.1 - E.Sub [TeamExD-ExclusivE]

    Follow us on Social Media










    Code:
    http://www.imdb.com/title/tt2246724/
    
    Sanju, Pandit and Idris rob a bank and decide to share the money. 
    
    
    General
    Complete name                            : Ghanchakkar (2013) - 1CD - DVDRip - x264 - 5.1 - E.Sub [TeamExD-ExclusivE]
    Format                                   : Matroska
    Format version                           : Version 4 / Version 2
    File size                                : 699 MiB
    Duration                                 : 2h 15mn
    Overall bit rate                         : 723 Kbps
    Movie name                               : ExD - Ghanchakkar (2013)
    
    Video
    Format                                   : AVC
    Bit rate                                 : 592 Kbps
    Width                                    : 640 pixels
    Height                                   : 272 pixels
    Display aspect ratio                     : 2.35:1
    Frame rate mode                          : Constant
    Frame rate                               : 23.976 fps
    Color space                              : YUV
    Chroma subsampling                       : 4:2:0
    Bit depth                                : 8 bits
    Scan type                                : Progressive
    Bits/(Pixel*Frame)                       : 0.142
    Stream size                              : 561 MiB (80%)
    
    Audio
    Format                                   : AC-3
    Duration                                 : 2h 15mn
    Bit rate mode                            : Constant
    Bit rate                                 : 128 Kbps
    Channel(s)                               : 6 channels
    Channel positions                        : Front: L C R, Side: L R, LFE
    Sampling rate                            : 48.0 KHz
    Bit depth                                : 16 bits
    Compression mode                         : Lossy
    Stream size                              : 124 MiB (18%)
    Title                                    : ExD
    Language                                 : Hindi
    
    Text
    Format                                   : VobSub
    Language                                 : English














    SINGLE LINKS

    Code:
    http://extabit.com/file/2dud6c3otoo7k/Ghanchakkar.(2013).1CD.DVDRip.x264.5.1.E.Sub.[Team.ExD-ExclusivE].mkv
    Code:
    http://lumfile.com/xffzpl7i6js0/Ghanchakkar.(2013).1CD.DVDRip.x264.5.1.E.Sub.[Team.ExD-ExclusivE].mkv.html

 

 

Posting Permissions

  • You may not post new threads
  • You may not post replies
  • You may not post attachments
  • You may not edit your posts
  •