Results 1 to 1 of 1
  1. #1
    dR Rockers www.desirulez.net
    Join Date
    Aug 2011
    Posts
    5,859

    Cool Once Upon A Time In Mumbai Dobaara! (2013) 1CD - SCAM - XviD -MP3 [Team TT eXclusive]

    Follow us on Social Media











    Code:
    http://www.imdb.com/title/tt1891884/
    General
    Complete name                            :Once Upon Ay Time In Mumbai Dobaara! [2013].avi
    Format                                   : AVI
    Format/Info                              : Audio Video Interleave
    File size                                : 681 MiB
    Duration                                 : 2h 10mn
    Overall bit rate                         : 727 Kbps
    
    Video
    ID                                       : 0
    Format                                   : AVC
    Format/Info                              : Advanced Video Codec
    Codec ID                                 : H264
    Duration                                 : 2h 10mn
    Bit rate                                 : 635 Kbps
    Width                                    : 640 pixels
    Height                                   : 272 pixels
    Display aspect ratio                     : 2.35:1
    Frame rate mode                          : Variable
    Frame rate                               : 25.000 fps
    Stream size                              : 594 MiB (87%)
    
    Audio
    ID                                       : 1
    Format                                   : MPEG Audio
    Codec ID                                 : 55
    Codec ID/Hint                            : MP3
    Duration                                 : 2h 10mn
    Bit rate mode                            : Constant
    Bit rate                                 : 80.0 Kbps
    Channel(s)                               : 2 channels
    Sampling rate                            : 44.1 KHz
    Stream size                              : 74.9 MiB (11%)





    SINGLE LINKS
    Code:
    http://extabit.com/file/2dud6c4wibnom/Once.Upon.A.Time.In.Mumbai.Dobaara!.[2013].SCAM.1CD.MP3.[Team.Telly].eXclusive.seTul34.avi
    Code:
    http://lumfile.com/nfldjjyv69kd/Once.Upon.A.Time.In.Mumbai.Dobaara!.[2013].SCAM.1CD.MP3.[Team.Telly].eXclusive.seTul34.avi.html

 

 

Posting Permissions

  • You may not post new threads
  • You may not post replies
  • You may not post attachments
  • You may not edit your posts
  •