Results 1 to 1 of 1
  1. #1
    Hot Member www.desirulez.net
    Join Date
    Feb 2013
    Posts
    1,015

    Cool Once Upon A Time In Mumbai Dobaara! (2013) SCAM 1CD Xvid MP3 eXclusive - seTul34

    Follow us on Social Media





    Once Upon A Time In Mumbai Dobaara! (2013) SCAM 1CD Xvid MP3 eXclusive - seTul34



    General
    Complete name nce Upon Ay Time In Mumbai Dobaara! [2013].avi
    Format : AVI
    Format/Info : Audio Video Interleave
    File size : 681 MiB
    Duration : 2h 10mn
    Overall bit rate : 727 Kbps

    Video
    ID : 0
    Format : AVC
    Format/Info : Advanced Video Codec
    Codec ID : H264
    Duration : 2h 10mn
    Bit rate : 635 Kbps
    Width : 640 pixels
    Height : 272 pixels
    Display aspect ratio : 2.35:1
    Frame rate mode : Variable
    Frame rate : 25.000 fps
    Stream size : 594 MiB (87%)

    Audio
    ID : 1
    Format : MPEG Audio
    Codec ID : 55
    Codec ID/Hint : MP3
    Duration : 2h 10mn
    Bit rate mode : Constant
    Bit rate : 80.0 Kbps
    Channel(s) : 2 channels
    Sampling rate : 44.1 KHz
    Stream size : 74.9 MiB (11%)






    [ sample ]

    Code:
    http://www.arabloads.com/4sd0z6f8o78u/_SAMPLE_.avi.html
    [ DOWNLOAD ]


    [ uploadinc ]

    Code:
    http://uploadinc.com/f6vgz26cirwc.html
    [ arabloads ]

    Code:
    http://www.arabloads.com/9zuo2txxqcep/Once_Upon_Ay_Time_In_Mumbai_Dobaara_[2013]_-_SCAM_-_1CD_-_MP3_-_seTul34.avi.html
    [ hugefiles ]

    Code:
    http://hugefiles.net/jyo07fn48d4w
    [ filesflash ]

    Code:
    http://filesflash.com/srt6n0ci
    [ filesflash for indian users ]

    Code:
    http://filesflash:8001.com/srt6n0ci
    [ speedshare ]

    Code:
    http://speedshare.eu/cmfwsjqmw14k/Once_Upon_Ay_Time_In_Mumbai_Dobaara_[2013]_-_SCAM_-_1CD_-_MP3_-_seTul34.avi.html












 

 

Posting Permissions

  • You may not post new threads
  • You may not post replies
  • You may not post attachments
  • You may not edit your posts
  •