Results 1 to 1 of 1
  1. #1
    Hot Member www.desirulez.net
    Join Date
    Feb 2013
    Posts
    1,015

    Cool Once Upon Ay Time In Mumbai Dobaara! (2013) - Untouched - SCAM - TT - eXclusive

    Follow us on Social Media









    General
    Complete name : Once Upon Ay Time In Mumbai Dobaara! [2013].mpg
    Format : MPEG-PS
    File size : 749 MiB
    Duration : 2h 10mn
    Overall bit rate : 800 Kbps

    Video
    ID : 224 (0xE0)
    Format : MPEG Video
    Format version : Version 2
    Format settings, BVOP : Yes
    Format settings, Matrix : Custom
    Format settings, GOP : Variable
    Duration : 2h 10mn
    Bit rate : 720 Kbps
    Maximum bit rate : 1 150 Kbps
    Width : 352 pixels
    Height : 288 pixels
    Display aspect ratio : 1.222
    Frame rate : 25.000 fps
    Standard : PAL
    Color space : YUV
    Chroma subsampling : 4:2:0
    Bit depth : 8 bits
    Scan type : Progressive
    Compression mode : Lossy
    Bits/(Pixel*Frame) : 0.284
    Time code of first frame : 00:00:00:00
    Time code source : Group of pictures header
    Stream size : 674 MiB (90%)

    Audio
    ID : 192 (0xC0)
    Format : MPEG Audio
    Format version : Version 1
    Format profile : Layer 2
    Duration : 2h 10mn
    Bit rate mode : Constant
    Bit rate : 64.0 Kbps
    Channel(s) : 2 channels
    Sampling rate : 48.0 KHz
    Compression mode : Lossy
    Stream size : 59.9 MiB (8%)










    [ DOWNLOAD ]


    [ uploadinc ]

    Code:
    http://uploadinc.com/204igk0g4ij0.html
    [ arabloads ]

    Code:
    http://www.arabloads.com/wxceedefhdad/_Once_Upon_Ay_Time_In_Mumbai_Dobaara!_[2013]_-_Untouched_-_SCAM_.mpg.html
    [ hugefiles ]

    Code:
    http://hugefiles.net/n84x6iyql6sw
    [ filesflash ]

    Code:
    http://filesflash.com/kw0zv82p
    [ filesflash for indian users ]

    Code:
    http://filesflash:8001.com/kw0zv82p
    [ speedshare ]

    Code:
    http://speedshare.eu/p4c9byspr22i/_Once_Upon_Ay_Time_In_Mumbai_Dobaara!_[2013]_-_Untouched_-_SCAM_.mpg.html












 

 

Posting Permissions

  • You may not post new threads
  • You may not post replies
  • You may not post attachments
  • You may not edit your posts
  •