Results 1 to 2 of 2
  1. #1
    Hot Member www.desirulez.net
    Join Date
    Feb 2013
    Posts
    1,015

    Cool Rise of The Zombies (2013) DVDRip 1CD Xvid MP3 ESub eXclusive - seTul34

    Follow us on Social Media









    General
    Complete name : Rise of The Zombies [2013] - seTul34.avi
    Format : AVI
    Format/Info : Audio Video Interleave
    File size : 708 MiB
    Duration : 1h 26mn
    Overall bit rate : 1 143 Kbps

    Video
    ID : 0
    Format : MPEG-4 Visual
    Format profile : [email protected]
    Codec ID : XVID
    Duration : 1h 26mn
    Bit rate : 1 029 Kbps
    Width : 640 pixels
    Height : 272 pixels
    Display aspect ratio : 2.35:1
    Frame rate : 29.970 fps
    Original frame rate : 29.000 fps
    Stream size : 638 MiB (90%)

    Audio
    ID : 1
    Format : MPEG Audio
    Codec ID : 55
    Codec ID/Hint : MP3
    Duration : 1h 26mn
    Bit rate mode : Constant
    Bit rate : 96.0 Kbps
    Channel(s) : 2 channels
    Sampling rate : 44.1 KHz
    `1Stream size : 59.5 MiB (8%)












    [ sample ]

    Code:
    http://www.arabloads.com/f7sbq5mxyu24/SAMPLE_-.avi.html
    [ DOWNLOAD ]


    [ uploadinc ]

    Code:
    http://uploadinc.com/i10ungitatsn.html
    [ arabloads ]

    Code:
    http://www.arabloads.com/uu1ixg96lvxu/_Rise_of_The_Zombies_[2013]_-_DVDRip_-_1CD_-_Xvid_-_MP3_-_E-Sub_-_seTul34.avi.html
    [ hugefiles ]

    Code:
    http://hugefiles.net/hblr89h7gzp8
    [ filesflash ]

    Code:
    http://filesflash.com/xukaefcb
    [ filesflash for indian users ]

    Code:
    http://filesflash:8001.com/xukaefcb
    [ speedshare ]

    Code:
    http://speedshare.eu/5j49u5riao95/_Rise_of_The_Zombies_[2013]_-_DVDRip_-_1CD_-_Xvid_-_MP3_-_E-Sub_-_seTul34.avi.html












  2. #2
    Landed To DesiRulez www.desirulez.net
    Join Date
    Aug 2013
    Posts
    12

    Default

    seems nice print

 

 

Posting Permissions

  • You may not post new threads
  • You may not post replies
  • You may not post attachments
  • You may not edit your posts
  •