Results 1 to 1 of 1
  1. #1
    dR Rockers www.desirulez.net
    Join Date
    Jun 2011
    Posts
    2,793

    Thumbs up Ganchakkar2013 - ANAMORPHIC WIDESCREEN- DVDRip - x264 - Untouched AC3 - E.Sub ExD 2.2gb

    Follow us on Social Media








    Code:
    General
    Format                                   : Matroska
    Format version                           : Version 4 / Version 2
    File size                                : 2.19 GiB
    Duration                                 : 2h 15mn
    Overall bit rate                         : 2 317 Kbps
    
    
    Video
    Format                                   : AVC
    Duration                                 : 2h 15mn
    Bit rate                                 : 1 878 Kbps
    Width                                    : 852 pixels
    Height                                   : 360 pixels
    Display aspect ratio                     : 2.35:1
    Frame rate mode                          : Constant
    Frame rate                               : 23.976 fps
    Color space                              : YUV
    Chroma subsampling                       : 4:2:0
    Bit depth                                : 8 bits
    Scan type                                : Progressive
    Bits/(Pixel*Frame)                       : 0.255
    Stream size                              : 1.72 GiB (79%)
    
    Audio
    Format                                   : AC-3
    Duration                                 : 2h 15mn
    Bit rate mode                            : Constant
    Bit rate                                 : 448 Kbps
    Channel(s)                               : 6 channels
    Channel positions                        : Front: L C R, Side: L R, LFE
    Sampling rate                            : 48.0 KHz
    Bit depth                                : 16 bits
    Compression mode                         : Lossy
    Delay relative to video                  : 15ms
    Stream size                              : 433 MiB (19%)
    
    Text
    Format                                   : VobSub
    Language                                 : English









    (Resume Support)
    Code:
    http://www.arabloads.com/wvywwhg9z0gb/Ghnchkr_ANAMORPHIC-WIDESCREEN.mkv.html



 

 

Posting Permissions

  • You may not post new threads
  • You may not post replies
  • You may not post attachments
  • You may not edit your posts
  •