Results 1 to 1 of 1
  1. #1
    Hot Member www.desirulez.net
    Join Date
    Feb 2013
    Posts
    1,015

    Cool Ghanchakkar (2013) DVDRip 1CD XviD E-Sub - TT - eXclusive

    Follow us on Social Media










    General
    Complete name : Ghanchakkar [2013].avi
    Format : AVI
    Format/Info : Audio Video Interleave
    File size : 716 MiB
    Duration : 2h 15mn
    Overall bit rate : 741 Kbps

    Video
    ID : 0
    Format : MPEG-4 Visual
    Format profile : [email protected]
    Format settings, BVOP : No
    Format settings, QPel : No
    Format settings, GMC : No warppoints
    Format settings, Matrix : Default (H.263)
    Codec ID : XVID
    Codec ID/Hint : XviD
    Duration : 2h 15mn
    Bit rate : 627 Kbps
    Width : 640 pixels
    Height : 272 pixels
    Display aspect ratio : 2.35:1
    Frame rate : 29.970 fps
    Original frame rate : 29.000 fps
    Color space : YUV
    Chroma subsampling : 4:2:0
    Bit depth : 8 bits
    Scan type : Progressive
    Compression mode : Lossy
    Bits/(Pixel*Frame) : 0.120
    Stream size : 606 MiB (85%)
    Writing library : XviD 1.2.1 (UTC 2008-12-04)

    Audio
    ID : 1
    Format : MPEG Audio
    Format version : Version 1
    Format profile : Layer 3
    Mode : Joint stereo
    Mode extension : MS Stereo
    Codec ID : 55
    Codec ID/Hint : MP3
    Duration : 2h 15mn
    Bit rate mode : Constant
    Bit rate : 96.0 Kbps
    Channel(s) : 2 channels
    Sampling rate : 44.1 KHz
    Compression mode : Lossy
    Stream size : 92.8 MiB (13%)
    Alignment : Aligned on interleaves
    Interleave, duration : 26 ms (0.78 video frame)
    Writing library : LAME3.98












    [ sample ]

    Code:
    http://www.arabloads.com/liq0odql9rc3/SAMPLE_-_Ghanchakkar_[2013]_-_DVDRip_-_1CD_-_XviD_-_E-Sub_.avi.html
    [ DOWNLOAD ]


    [ uploadinc ]

    Code:
    http://uploadinc.com/qbsz0ed3rkik.html
    [ arabloads ]

    Code:
    http://www.arabloads.com/awnm4337o7uz/Ghanchakkar_[2013]_-_DVDRip_-_1CD_-_XviD_-_E-Sub_.avi.html
    [ hugefiles ]

    Code:
    http://hugefiles.net/4615fivyqfgi
    [ filesflash ]

    Code:
    http://filesflash.com/cmk8dcy2
    [ filesflash for indian users ]

    Code:
    http://filesflash:8001.com/cmk8dcy2
    [ speedshare ]

    Code:
    http://speedshare.eu/ia3xmhqhlab0/Ghanchakkar_[2013]_-_DVDRip_-_1CD_-_XviD_-_E-Sub_.avi.html












 

 

Posting Permissions

  • You may not post new threads
  • You may not post replies
  • You may not post attachments
  • You may not edit your posts
  •