Results 1 to 1 of 1
  1. #1
    dR Rockers www.desirulez.net
    Join Date
    Aug 2011
    Posts
    5,859

    Cool Chennai Express (2013) - 1GB - x264 - DVDScr - 6-Channels AC3- [ExD-XMR]

    Follow us on Social Media











    Code:
    *File Info*
    
    Format                           : Matroska
    File size                        : 1 021 MiB
    Duration                         : 2h 16mn
    Overall bit rate                 : 1 048 Kbps
    Encoded date                     : UTC 2013-08-12 20:50:33
    Writing application              : mkvmerge v6.2.0 ('Promised Land') built on Apr 28 2013 12:22:01
    Writing library                  : libebml v1.3.0 + libmatroska v1.4.0
    
    Video
    ID                               : 1
    Format                           : AVC
    Format/Info                      : Advanced Video Codec
    Format profile                   : [email protected]
    Format settings, CABAC           : Yes
    Format settings, ReFrames        : 4 frames
    Format settings, GOP             : M=1, N=25
    Codec ID                         : V_MPEG4/ISO/AVC
    Duration                         : 2h 16mn
    Bit rate                         : 854 Kbps
    Width                            : 720 pixels
    Height                           : 336 pixels
    Display aspect ratio             : 2.2:1
    Frame rate                       : 23.976 fps
    Color space                      : YUV
    Chroma subsampling               : 4:2:0
    Bit depth                        : 8 bits
    Scan type                        : Progressive
    Bits/(Pixel*Frame)               : 0.147
    Stream size                      : 814 MiB (80%)
    Writing library                  : x264 core 133 r2334 a3ac64b
    
    Audio
    ID                               : 2
    Format                           : AC-3
    Format/Info                      : Audio Coding 3
    Mode extension                   : CM (complete main)
    Codec ID                         : A_AC3
    Duration                         : 2h 16mn
    Bit rate mode                    : Constant
    Bit rate                         : 192 Kbps
    Channel(s)                       : 6 channels
    Channel positions                : Front: L C R, Side: L R, LFE
    Sampling rate                    : 48.0 KHz
    Bit depth                        : 16 bits
    Compression mode                 : Lossy
    Stream size                      : 187 MiB (18%)
    Language                         : Hindi












    SINGLE LINKS
    Code:
    http://extabit.com/file/2dud6b8cqp812/Chennai.Express.(2013).1GB.x264.6Channels.AC3.{Exd-XMR}.mkv
    Code:
    http://lumfile.com/kjj60p2a5orf/Chennai.Express.(2013).1GB.x264.6Channels.AC3.{Exd-XMR}.mkv.html

 

 

Posting Permissions

  • You may not post new threads
  • You may not post replies
  • You may not post attachments
  • You may not edit your posts
  •