Results 1 to 1 of 1
  1. #1
    Hot Member www.desirulez.net
    Join Date
    Feb 2013
    Posts
    1,015

    Cool Chennai Express{2013) Final Source MC HDDVDSCR 1CD XviD TT - eXclusive

    Follow us on Social Media










    General
    Complete name : Chennai Express [2013].avi
    Format : AVI
    Format/Info : Audio Video Interleave
    File size : 701 MiB
    Duration : 2h 18mn
    Overall bit rate mode : Variable
    Overall bit rate : 705 Kbps

    Video
    ID : 0
    Format : MPEG-4 Visual
    Format profile : [email protected]
    Format settings, BVOP : No
    Format settings, QPel : No
    Format settings, GMC : No warppoints
    Format settings, Matrix : Default (H.263)
    Codec ID : XVID
    Codec ID/Hint : XviD
    Duration : 2h 18mn
    Bit rate : 620 Kbps
    Width : 640 pixels
    Height : 272 pixels
    Display aspect ratio : 2.35:1
    Frame rate : 25.000 fps
    Color space : YUV
    Chroma subsampling : 4:2:0
    Bit depth : 8 bits
    Scan type : Progressive
    Compression mode : Lossy
    Bits/(Pixel*Frame) : 0.142
    Stream size : 616 MiB (88%)
    Writing library : XviD 63

    Audio
    ID : 1
    Format : MPEG Audio
    Format version : Version 1
    Format profile : Layer 3
    Mode : Joint stereo
    Mode extension : MS Stereo
    Codec ID : 55
    Codec ID/Hint : MP3
    Duration : 2h 18mn
    Bit rate mode : Variable
    Bit rate : 72.6 Kbps
    Channel(s) : 2 channels
    Sampling rate : 44.1 KHz
    Compression mode : Lossy
    Stream size : 72.1 MiB (10%)
    Alignment : Aligned on interleaves
    Interleave, duration : 26 ms (0.65 video frame)
    Interleave, preload duration : 470 ms









    [ sample ]

    Code:
    http://www.arabloads.com/520ov3hp2xhj/SAMPLE_-_Chennai_Express_[2013]_-_Final_Source_-_MC_HDDVDSCR_-_1CD_-_XviD_.avi.html
    [ DOWNLOAD ]


    [ uploadscenter ]

    Code:
    http://uploadinc.com/2hf708iax8rm.html
    [ arabloads ]

    Code:
    http://www.arabloads.com/lsw7rld6776q/Chennai_Express_[2013]_-_Final_Source_-_MC_HDDVDSCR_-_1CD_-_XviD_.avi.html
    [ hugefiles ]

    Code:
    http://hugefiles.net/mlbv2vgspswe















 

 

Posting Permissions

  • You may not post new threads
  • You may not post replies
  • You may not post attachments
  • You may not edit your posts
  •