Results 1 to 1 of 1
  1. #1
    Hot Member www.desirulez.net
    Join Date
    Feb 2013
    Posts
    1,015

    Cool I Dont Luv U (2013) DTHRip 1CD - XviD TT - eXclusive

    Follow us on Social Media










    General
    Complete name : I Don't Luv U [2013].avi
    Format : AVI
    Format/Info : Audio Video Interleave
    File size : 715 MiB
    Duration : 2h 0mn
    Overall bit rate : 829 Kbps

    Video
    ID : 0
    Format : MPEG-4 Visual
    Format profile : [email protected]
    Format settings, BVOP : No
    Format settings, QPel : No
    Format settings, GMC : No warppoints
    Format settings, Matrix : Default (H.263)
    Codec ID : XVID
    Codec ID/Hint : XviD
    Duration : 2h 0mn
    Bit rate : 715 Kbps
    Width : 640 pixels
    Height : 272 pixels
    Display aspect ratio : 2.35:1
    Frame rate : 29.970 fps
    Original frame rate : 29.000 fps
    Color space : YUV
    Chroma subsampling : 4:2:0
    Bit depth : 8 bits
    Scan type : Progressive
    Compression mode : Lossy
    Bits/(Pixel*Frame) : 0.137
    Stream size : 617 MiB (86%)
    Writing library : XviD 1.2.1 (UTC 2008-12-04)

    Audio
    ID : 1
    Format : MPEG Audio
    Format version : Version 1
    Format profile : Layer 3
    Mode : Joint stereo
    Mode extension : MS Stereo
    Codec ID : 55
    Codec ID/Hint : MP3
    Duration : 2h 0mn
    Bit rate mode : Constant
    Bit rate : 96.0 Kbps
    Channel(s) : 2 channels
    Sampling rate : 44.1 KHz
    Compression mode : Lossy
    Stream size : 82.8 MiB (12%)
    Alignment : Aligned on interleaves
    Interleave, duration : 26 ms (0.78 video frame)
    Writing library : LAME3.98

    Screenshots












    [ sample ]

    Code:
    http://www.arabloads.com/fd7ul5ie1a6c/_SAMPLE_I_Don't_Luv_U_[2013]_-.avi.html
    [ DOWNLOAD ]


    [ uploadinc ]

    Code:
    http://uploadinc.com/mv8j2ec5uc5d.html
    [ arabloads ]

    Code:
    http://www.arabloads.com/o797l66wwuik/_I_Don't_Luv_U_[2013]_-_DTHRip_-_1CD.avi.html
    [ hugefiles ]

    Code:
    http://hugefiles.net/8yfwdj5ppt7f













 

 

Posting Permissions

  • You may not post new threads
  • You may not post replies
  • You may not post attachments
  • You may not edit your posts
  •