Results 1 to 1 of 1
  1. #1
    dR Rockers www.desirulez.net
    Join Date
    Aug 2011
    Posts
    5,859

    Cool Chennai Express [2013] - MC DVDScr - 576p - x264 - AC3 - TT

    Follow us on Social Media











    Code:
    General Complete name : Chennai Express [2013] - MC DVDScr - 576p - seTul34.mkv Format : Matroska Format version : Version 2 File size : 1.64 GiB Duration : 2h 19mn Overall bit rate : 1 683 Kbps Video ID : 1 Format : AVC Format/Info : Advanced Video Codec Codec ID : V_MPEG4/ISO/AVC Duration : 2h 19mn Bit rate : 1 521 Kbps Width : 1 024 pixels Height : 432 pixels Display aspect ratio : 2.40:1 Frame rate mode : Constant Frame rate : 23.976 fps Stream size : 1.48 GiB (90%) Audio ID : 2 Format : AC-3 Format/Info : Audio Coding 3 Codec ID : A_AC3 Duration : 2h 19mn Bit rate mode : Constant Bit rate : 128 Kbps Channel(s) : 2 channels Sampling rate : 48.0 KHz Stream size : 128 MiB (8%)












    SINGLE LINKS
    Code:
    http://extabit.com/file/2cq6g2iv4v28r/Chennai.Express.[2013].MC.DVDScr.576p.x264.AC3.[Team.Telly]-eXclusive-seTul34.mkv
    Code:
    http://lumfile.com/rbbvv4mirq70/Chennai.Express.[2013].MC.DVDScr.576p.x264.AC3.[Team.Telly]-eXclusive-seTul34.mkv.html

 

 

Posting Permissions

  • You may not post new threads
  • You may not post replies
  • You may not post attachments
  • You may not edit your posts
  •