Results 1 to 1 of 1
  1. #1

    Cool Ankur Arora Murder Case (2013) 720p DvDRip x264 DTS 5.1 ESubs [Team ExD]

    Follow us on Social Media














    Format : Matroska
    Format version : Version 2
    File size : 2.44 GiB
    Duration : 2h 8mn
    Overall bit rate : 2 720 Kbps
    Encoded date : UTC 2013-08-12 09:58:09
    Writing application : mkvmerge v6.2.0 ('Promised Land') built on Apr 28 2013 12:22:01
    Writing library : libebml v1.3.0 + libmatroska v1.4.0

    Video
    ID : 1
    Format : AVC
    Format/Info : Advanced Video Codec
    Format profile : [email protected]
    Format settings, CABAC : Yes
    Format settings, ReFrames : 4 frames
    Codec ID : V_MPEG4/ISO/AVC
    Duration : 2h 8mn
    Bit rate : 1 963 Kbps
    Width : 1 280 pixels
    Height : 544 pixels
    Display aspect ratio : 2.35:1
    Frame rate mode : Constant
    Frame rate : 23.976 fps
    Color space : YUV
    Chroma subsampling : 4:2:0
    Bit depth : 8 bits
    Scan type : Progressive
    Bits/(Pixel*Frame) : 0.118
    Stream size : 1.71 GiB (70%)
    Title : Team ExDR
    Writing library : x264 core 133 r2334 a3ac64b
    Language : English
    Default : Yes
    Forced : No
    Color primaries : Generic film
    Transfer characteristics : BT.709
    Matrix coefficients : BT.709

    Audio
    ID : 2
    Format : DTS
    Format/Info : Digital Theater Systems
    Mode : 16
    Format settings, Endianness : Big
    Codec ID : A_DTS
    Duration : 2h 8mn
    Bit rate mode : Constant
    Bit rate : 755 Kbps
    Channel(s) : 6 channels
    Channel positions : Front: L C R, Side: L R, LFE
    Sampling rate : 48.0 KHz
    Bit depth : 24 bits
    Compression mode : Lossy
    Stream size : 693 MiB (28%)
    Title : Team ExDR
    Language : Hindi
    Default : Yes
    Forced : No

    Text
    ID : 3
    Format : UTF-8
    Codec ID : S_TEXT/UTF8
    Codec ID/Info : UTF-8 Plain Text
    Title : Team ExDR
    Language : English
    Default : Yes
    Forced : No
    Code:
    http://ryushare.com/304b4ea9dd24/Ankur_Arora_Murder_Case_(2013)_720p_DvDRip_x264_DTS_5.1_ESubs_Pakistani_Bacha_[Team_ExDR_Exclusive].mkv
    Code:
    http://rapidgator.net/file/85f4250cef447e9e13d23d6971d98241/Ankur_Arora_Murder_Case_(2013)_720p_DvDRip_x264_DTS_5.1_ESubs_Pakistani_Bacha_[Team_ExDR_Exclusive].mkv.001.html
    http://rapidgator.net/file/0b7aa9f753db47fa3b1ec25b8384eb28/Ankur_Arora_Murder_Case_(2013)_720p_DvDRip_x264_DTS_5.1_ESubs_Pakistani_Bacha_[Team_ExDR_Exclusive].mkv.002.html
    http://rapidgator.net/file/8551080e0cb6db2620ac84a8db0c421e/Ankur_Arora_Murder_Case_(2013)_720p_DvDRip_x264_DTS_5.1_ESubs_Pakistani_Bacha_[Team_ExDR_Exclusive].mkv.003.html
    Code:
    https://ultramegabit.com/file/details/BbUnYWOndpk
    https://ultramegabit.com/file/details/Je3jHP2-EUo
    https://ultramegabit.com/file/details/L6kSwY68GMc

 

 

Posting Permissions

  • You may not post new threads
  • You may not post replies
  • You may not post attachments
  • You may not edit your posts
  •