Results 1 to 2 of 2
  1. #1

    Cool I Don't Luv U (2013) - DTHRip - 1CD - XviD - (Team Telly)

    Follow us on Social Media













    General
    Complete name : I Don't Luv U [2013].avi
    Format : AVI
    Format/Info : Audio Video Interleave
    File size : 715 MiB
    Duration : 2h 0mn
    Overall bit rate : 829 Kbps

    Video
    ID : 0
    Format : MPEG-4 Visual
    Format profile : [email protected]
    Format settings, BVOP : No
    Format settings, QPel : No
    Format settings, GMC : No warppoints
    Format settings, Matrix : Default (H.263)
    Codec ID : XVID
    Codec ID/Hint : XviD
    Duration : 2h 0mn
    Bit rate : 715 Kbps
    Width : 640 pixels
    Height : 272 pixels
    Display aspect ratio : 2.35:1
    Frame rate : 29.970 fps
    Original frame rate : 29.000 fps
    Color space : YUV
    Chroma subsampling : 4:2:0
    Bit depth : 8 bits
    Scan type : Progressive
    Compression mode : Lossy
    Bits/(Pixel*Frame) : 0.137
    Stream size : 617 MiB (86%)
    Writing library : XviD 1.2.1 (UTC 2008-12-04)

    Audio
    ID : 1
    Format : MPEG Audio
    Format version : Version 1
    Format profile : Layer 3
    Mode : Joint stereo
    Mode extension : MS Stereo
    Codec ID : 55
    Codec ID/Hint : MP3
    Duration : 2h 0mn
    Bit rate mode : Constant
    Bit rate : 96.0 Kbps
    Channel(s) : 2 channels
    Sampling rate : 44.1 KHz
    Compression mode : Lossy
    Stream size : 82.8 MiB (12%)
    Alignment : Aligned on interleaves
    Interleave, duration : 26 ms (0.78 video frame)
    Writing library : LAME3.98
    Code:
    http://rapidgator.net/file/37f48f14132339a816f44a05cd800740/I_Don't_Luv_U_[2013]_-_DTHRip_-_1CD_-_XviD_-_[Team_Telly]_-_eXclusive_-_deep1007.avi.html
    
    http://ryushare.com/cd2e9832a18/I_Don't_Luv_U_[2013]_-_DTHRip_-_1CD_-_XviD_-_[Team_Telly]_-_eXclusive_-_deep1007.avi
    
    http://ul.to/1dt6qcrg
    
    https://ultramegabit.com/file/details/EsK5tl40pZE

  2. #2

 

 

Posting Permissions

  • You may not post new threads
  • You may not post replies
  • You may not post attachments
  • You may not edit your posts
  •