Results 1 to 1 of 1
  1. #1
    dR Rockers www.desirulez.net
    Join Date
    Aug 2011
    Posts
    5,859

    Cool Ankur Arora Murder Case (2013) 720p DvDRip x264 DTS 5.1 ESubs [Team ExDR Exclusive]

    Follow us on Social Media











    Code:
    Format                                   : Matroska
    Format version                           : Version 2
    File size                                : 2.44 GiB
    Duration                                 : 2h 8mn
    Overall bit rate                         : 2 720 Kbps
    Encoded date                             : UTC 2013-08-12 09:58:09
    Writing application                      : mkvmerge v6.2.0 ('Promised Land') built on Apr 28 2013 12:22:01
    Writing library                          : libebml v1.3.0 + libmatroska v1.4.0
    
    Video
    ID                                       : 1
    Format                                   : AVC
    Format/Info                              : Advanced Video Codec
    Format profile                           : [email protected]
    Format settings, CABAC                   : Yes
    Format settings, ReFrames                : 4 frames
    Codec ID                                 : V_MPEG4/ISO/AVC
    Duration                                 : 2h 8mn
    Bit rate                                 : 1 963 Kbps
    Width                                    : 1 280 pixels
    Height                                   : 544 pixels
    Display aspect ratio                     : 2.35:1
    Frame rate mode                          : Constant
    Frame rate                               : 23.976 fps
    Color space                              : YUV
    Chroma subsampling                       : 4:2:0
    Bit depth                                : 8 bits
    Scan type                                : Progressive
    Bits/(Pixel*Frame)                       : 0.118
    Stream size                              : 1.71 GiB (70%)
    Title                                    : Team ExDR
    Writing library                          : x264 core 133 r2334 a3ac64b
    Language                                 : English
    Default                                  : Yes
    Forced                                   : No
    Color primaries                          : Generic film
    Transfer characteristics                 : BT.709
    Matrix coefficients                      : BT.709
    
    Audio
    ID                                       : 2
    Format                                   : DTS
    Format/Info                              : Digital Theater Systems
    Mode                                     : 16
    Format settings, Endianness              : Big
    Codec ID                                 : A_DTS
    Duration                                 : 2h 8mn
    Bit rate mode                            : Constant
    Bit rate                                 : 755 Kbps
    Channel(s)                               : 6 channels
    Channel positions                        : Front: L C R, Side: L R, LFE
    Sampling rate                            : 48.0 KHz
    Bit depth                                : 24 bits
    Compression mode                         : Lossy
    Stream size                              : 693 MiB (28%)
    Title                                    : Team ExDR
    Language                                 : Hindi
    Default                                  : Yes
    Forced                                   : No
    
    Text
    ID                                       : 3
    Format                                   : UTF-8
    Codec ID                                 : S_TEXT/UTF8
    Codec ID/Info                            : UTF-8 Plain Text
    Title                                    : Team ExDR
    Language                                 : English
    Default                                  : Yes
    Forced                                   : No














    SINGLE LINKS
    Code:
    http://extabit.com/file/2cq6g2idmo7wb/Ankur.Arora.Murder.Case.(2013).720p.DvDRip.x264.DTS.5.1.ESubs.Pakistani.Bacha.[Team.ExDR.Exclusive].mkv
    Code:
    http://lumfile.com/8p6kuu7e4dk1/Ankur.Arora.Murder.Case.(2013).720p.DvDRip.x264.DTS.5.1.ESubs.Pakistani.Bacha.[Team.ExDR.Exclusive].mkv.html

    700MB LINKS

    Code:
    http://extabit.com/file/2cq6g2idmoe17/Ankur.Arora.Murder.Case.(2013).720p.DvDRip.x264.DTS.5.1.ESubs.Pakistani.Bacha.[Team.ExDR.Exclusive].mkv.001
    http://extabit.com/file/2cq6g2idmohaj/Ankur.Arora.Murder.Case.(2013).720p.DvDRip.x264.DTS.5.1.ESubs.Pakistani.Bacha.[Team.ExDR.Exclusive].mkv.002
    http://extabit.com/file/2cq6g2idmo7rf/Ankur.Arora.Murder.Case.(2013).720p.DvDRip.x264.DTS.5.1.ESubs.Pakistani.Bacha.[Team.ExDR.Exclusive].mkv.003
    http://extabit.com/file/2cq6g2idmoe57/Ankur.Arora.Murder.Case.(2013).720p.DvDRip.x264.DTS.5.1.ESubs.Pakistani.Bacha.[Team.ExDR.Exclusive].mkv.004

    Code:
    http://lumfile.com/pvyjlyuk4r5m/Ankur.Arora.Murder.Case.(2013).720p.DvDRip.x264.DTS.5.1.ESubs.Pakistani.Bacha.[Team.ExDR.Exclusive].mkv.001.html
    http://lumfile.com/5vdfh1u1okp9/Ankur.Arora.Murder.Case.(2013).720p.DvDRip.x264.DTS.5.1.ESubs.Pakistani.Bacha.[Team.ExDR.Exclusive].mkv.002.html
    http://lumfile.com/mmpul84czm62/Ankur.Arora.Murder.Case.(2013).720p.DvDRip.x264.DTS.5.1.ESubs.Pakistani.Bacha.[Team.ExDR.Exclusive].mkv.003.html
    http://lumfile.com/4idt33srpz23/Ankur.Arora.Murder.Case.(2013).720p.DvDRip.x264.DTS.5.1.ESubs.Pakistani.Bacha.[Team.ExDR.Exclusive].mkv.004.html

 

 

Posting Permissions

  • You may not post new threads
  • You may not post replies
  • You may not post attachments
  • You may not edit your posts
  •