Results 1 to 1 of 1
  1. #1
    dR Rockers www.desirulez.net
    Join Date
    Aug 2011
    Posts
    5,859

    Cool Ankur Arora Murder Case (2013) 1/3DvDRip XviD AC3 5.1 ESubs [Team ExDR ExClusive]

    Follow us on Social Media













    Code:
    Format                                   : AVI
    Format/Info                              : Audio Video Interleave
    File size                                : 1.46 GiB
    Duration                                 : 2h 8mn
    Overall bit rate                         : 1 628 Kbps
    
    Video
    ID                                       : 0
    Format                                   : MPEG-4 Visual
    Format profile                           : Advanced [email protected]
    Format settings, BVOP                    : 1
    Format settings, QPel                    : No
    Format settings, GMC                     : No warppoints
    Format settings, Matrix                  : Default (MPEG)
    Muxing mode                              : Packed bitstream
    Codec ID                                 : XVID
    Codec ID/Hint                            : XviD
    Duration                                 : 2h 8mn
    Bit rate                                 : 1 172 Kbps
    Width                                    : 720 pixels
    Height                                   : 304 pixels
    Display aspect ratio                     : 2.35:1
    Frame rate                               : 23.976 fps
    Color space                              : YUV
    Chroma subsampling                       : 4:2:0
    Bit depth                                : 8 bits
    Scan type                                : Progressive
    Compression mode                         : Lossy
    Bits/(Pixel*Frame)                       : 0.223
    Stream size                              : 1.05 GiB (72%)
    Writing library                          : XviD 1.2.1 (UTC 2008-12-04)
    
    Audio
    ID                                       : 1
    Format                                   : AC-3
    Format/Info                              : Audio Coding 3
    Mode extension                           : CM (complete main)
    Format settings, Endianness              : Big
    Codec ID                                 : 2000
    Duration                                 : 2h 8mn
    Bit rate mode                            : Constant
    Bit rate                                 : 448 Kbps
    Channel(s)                               : 6 channels
    Channel positions                        : Front: L C R, Side: L R, LFE
    Sampling rate                            : 48.0 KHz
    Bit depth                                : 16 bits
    Compression mode                         : Lossy
    Stream size                              : 412 MiB (28%)
    Alignment                                : Aligned on interleaves
    Interleave, duration                     : 64 ms (1.53 video frames)
    Interleave, preload duration             : 192 ms
    Title                                    : Team ExDR
    
    Text
    ID                                       : 2
    Duration                                 : 2h 8mn
    Bit rate                                 : 127 bps
    Stream size                              : 120 KiB (0%)
    Title                                    : Team ExDR


















    SINGLE LINKS
    Code:
    http://extabit.com/file/2cq6g2idm26gb/Ankur.Arora.Murder.Case.(2013).DvDRip.XviD.AC3.5.1.ESubs.Pakistani.Bacha.[Team.ExDR.Exclusive].avi
    Code:
    http://lumfile.com/zttwjm0jj0e1/Ankur.Arora.Murder.Case.(2013).DvDRip.XviD.AC3.5.1.ESubs.Pakistani.Bacha.[Team.ExDR.Exclusive].avi.html

 

 

Posting Permissions

  • You may not post new threads
  • You may not post replies
  • You may not post attachments
  • You may not edit your posts
  •