Results 1 to 2 of 2
  1. #1
    dR Rockers www.desirulez.net
    Join Date
    Jun 2011
    Posts
    2,793

    Thumbs up Ankur Arora Murder Case2013-1CD DvDRip XviD Mp3 Pakistani Bacha ExDR 700Mb

    Follow us on Social Media











    Code:
    Format                                   : AVI
    Format/Info                              : Audio Video Interleave
    File size                                : 701 MiB
    Duration                                 : 2h 8mn
    Overall bit rate                         : 763 Kbps
    
    Video
    ID                                       : 0
    Format                                   : MPEG-4 Visual
    Format profile                           : Advanced [email protected]
    Format settings, BVOP                    : 1
    Format settings, QPel                    : No
    Format settings, GMC                     : No warppoints
    Format settings, Matrix                  : Default (MPEG)
    Muxing mode                              : Packed bitstream
    Codec ID                                 : XVID
    Codec ID/Hint                            : XviD
    Duration                                 : 2h 8mn
    Bit rate                                 : 709 Kbps
    Width                                    : 720 pixels
    Height                                   : 304 pixels
    Display aspect ratio                     : 2.35:1
    Frame rate                               : 23.976 fps
    Color space                              : YUV
    Chroma subsampling                       : 4:2:0
    Bit depth                                : 8 bits
    Scan type                                : Progressive
    Compression mode                         : Lossy
    Bits/(Pixel*Frame)                       : 0.135
    Stream size                              : 651 MiB (93%)
    Writing library                          : XviD 1.2.1 (UTC 2008-12-04)
    
    Audio
    ID                                       : 1
    Format                                   : MPEG Audio
    Format version                           : Version 2
    Format profile                           : Layer 3
    Mode                                     : Joint stereo
    Codec ID                                 : 55
    Codec ID/Hint                            : MP3
    Duration                                 : 2h 8mn
    Bit rate mode                            : Constant
    Bit rate                                 : 48.0 Kbps
    Channel(s)                               : 2 channels
    Sampling rate                            : 22.05 KHz
    Compression mode                         : Lossy
    Stream size                              : 44.1 MiB (6%)
    Alignment                                : Aligned on interleaves
    Interleave, duration                     : 167 ms (4.00 video frames)
    Interleave, preload duration             : 209 ms
    Title                                    : Team ExDR
    Writing library                          : LAME3.99.5
    
    Text
    ID                                       : 2
    Duration                                 : 2h 8mn
    Bit rate                                 : 127 bps
    Stream size                              : 120 KiB (0%)
    Title                                    : Team ExDR













    (Resume Support)
    Code:
    http://www.arabloads.com/a5h3g7bv9tpy/AAMrdrCasExDR.avi.html

    (Resume Support/No Waiting)
    Code:
    http://www.queenshare.com/0wjgfyqmmgrz

  2. #2
    Landed To DesiRulez www.desirulez.net
    Join Date
    Aug 2013
    Posts
    12

    Default

    Mirror
    Dont give mirror / alternative links *Staff edit
    Last edited by Ding Dong; 08-13-2013 at 07:55 PM.

 

 

Posting Permissions

  • You may not post new threads
  • You may not post replies
  • You may not post attachments
  • You may not edit your posts
  •