Results 1 to 1 of 1
  1. #1
    Hot Member www.desirulez.net
    Join Date
    Feb 2013
    Posts
    1,015

    Cool Comedy Nights with Kapil 480p WebHD 10th Aug With Akshay Kumar, Sonakshi Sinha & Imran Khan

    Follow us on Social Media










    General
    Complete name : Comedy Nights with Kapil 480p WebHD 10th Aug 2013 - Team ExD
    Format : MKV
    File size : 446 MiB
    Duration : 55mn 54s
    Overall bit rate : 1 123 Kbps

    Video
    Format : AVC
    Format/Info : Advanced Video Codec
    Format profile : [email protected]
    Format settings, CABAC : Yes
    Format settings, ReFrames : 3 frames
    Muxing mode : Container [email protected]
    Duration : 55mn 54s
    Bit rate : 987 Kbps
    Width : 854 pixels
    Height : 480 pixels
    Display aspect ratio : 16:9
    Frame rate mode : Constant
    Frame rate : 25.000 fps
    Color space : YUV
    Chroma subsampling : 4:2:0
    Bit depth : 8 bits
    Scan type : Progressive
    Bits/(Pixel*Frame) : 0.096
    Stream size : 395 MiB (88%)

    Audio
    Format : AAC
    Format/Info : Advanced Audio Codec
    Format version : Version 4
    Format profile : LC
    Format settings, SBR : No
    Duration : 55mn 54s
    Bit rate : 129 Kbps
    Channel(s) : 2 channels
    Channel positions : Front: L R
    Sampling rate : 44.1 KHz
    Bit depth : 16 bits
    Stream size : 51.5 MiB (11%









    [ DOWNLOAD ]




    [ arabloads ]

    Code:
    http://www.arabloads.com/xd5zbav73ofo/Comedy_Nights_with_Kapil_480p_WebHD_10th_Aug_2013_-_Team_ExD.mkv.html
    [ hugefiles ]

    Code:
    http://hugefiles.net/q794u3v07pdq
    [ filesflash ]

    Code:
    http://filesflash.com/lrcj7n6l
    [ filesflash for indian users ]

    Code:
    http://filesflash:8001.com/lrcj7n6l














 

 

Posting Permissions

  • You may not post new threads
  • You may not post replies
  • You may not post attachments
  • You may not edit your posts
  •