Results 1 to 1 of 1
  1. #1
    Hot Member www.desirulez.net
    Join Date
    Feb 2013
    Posts
    1,015

    Cool Go Goa Gone (2013) DVDRip 1CD XviD ESub - TT - eXclusive

    Follow us on Social Media










    General
    Complete name : Go Goa Gone [2013].avi
    Format : AVI
    Format/Info : Audio Video Interleave
    File size : 718 MiB
    Duration : 1h 45mn
    Overall bit rate : 954 Kbps

    Video
    ID : 0
    Format : MPEG-4 Visual
    Format profile : [email protected]
    Format settings, BVOP : No
    Format settings, QPel : No
    Format settings, GMC : No warppoints
    Format settings, Matrix : Default (H.263)
    Codec ID : XVID
    Codec ID/Hint : XviD
    Duration : 1h 45mn
    Bit rate : 841 Kbps
    Width : 640 pixels
    Height : 272 pixels
    Display aspect ratio : 2.35:1
    Frame rate : 29.970 fps
    Original frame rate : 29.000 fps
    Color space : YUV
    Chroma subsampling : 4:2:0
    Bit depth : 8 bits
    Scan type : Progressive
    Compression mode : Lossy
    Bits/(Pixel*Frame) : 0.161
    Stream size : 633 MiB (88%)
    Writing library : XviD 1.2.1 (UTC 2008-12-04)

    Audio
    ID : 1
    Format : MPEG Audio
    Format version : Version 1
    Format profile : Layer 3
    Mode : Joint stereo
    Codec ID : 55
    Codec ID/Hint : MP3
    Duration : 1h 45mn
    Bit rate mode : Constant
    Bit rate : 96.0 Kbps
    Channel(s) : 2 channels
    Sampling rate : 44.1 KHz
    Compression mode : Lossy
    Stream size : 72.2 MiB (10%)
    Alignment : Aligned on interleaves
    Interleave, duration : 26 ms (0.78 video frame)
    Writing library : LAME3.98.2












    [ sample ]

    Code:
    http://www.arabloads.com/9u3fabji9677/SAMPLE_-_Go_Goa_Gone_[2013]_-_DVDRip_-_1CD_-_XviD_-_E-Sub_-_TT.avi.html
    [ DOWNLOAD ]


    [ uploadinc ]

    Code:
    http://uploadinc.com/dftbj78m7h82.html
    [ hugefiles ]

    Code:
    http://hugefiles.net/vzsmphdq6u1h
    [ arabloads ]

    Code:
    http://www.arabloads.com/2q3ew7wfjanu/Go_Goa_Gone_[2013]_-_DVDRip_-_1CD_-_XviD_-_E-Sub_TT.avi.html
    [ filesflash ]

    Code:
    http://filesflash.com/kwxauf1f
    [ filesflash for indian users ]

    Code:
    http://filesflash:8001.com/kwxauf1f














 

 

Posting Permissions

  • You may not post new threads
  • You may not post replies
  • You may not post attachments
  • You may not edit your posts
  •