Results 1 to 1 of 1
  1. #1
    Hot Member www.desirulez.net
    Join Date
    Feb 2013
    Posts
    1,015

    Cool Sona Spa (2013) (Hindi) Web HD Rip DDH - 700MB

    Follow us on Social Media










    General
    Complete name : Sona Spa 2013 WEBRIP DDH.mp4
    Format : MPEG-4
    Format profile : Base Media
    Codec ID : isom
    File size : 700 MiB
    Duration : 1h 42mn
    Overall bit rate mode : Variable
    Overall bit rate : 958 Kbps
    Encoded date : UTC 2013-06-01 00:23:20
    Tagged date : UTC 2013-06-01 00:23:20

    Video
    ID : 1
    Format : AVC
    Format/Info : Advanced Video Codec
    Format profile : [email protected]
    Format settings, CABAC : Yes
    Format settings, ReFrames : 4 frames
    Codec ID : avc1
    Codec ID/Info : Advanced Video Coding
    Duration : 1h 42mn
    Bit rate : 891 Kbps
    Maximum bit rate : 4 807 Kbps
    Width : 720 pixels
    Height : 304 pixels
    Display aspect ratio : 2.35:1
    Frame rate mode : Constant
    Frame rate : 25.000 fps
    Color space : YUV
    Chroma subsampling : 4:2:0
    Bit depth : 8 bits
    Scan type : Progressive
    Bits/(Pixel*Frame) : 0.163
    Stream size : 651 MiB (93%)
    Title : ÐV u‘~
    Writing library : x264 core 120 r2164 da19765
    Encoded date : UTC 2013-06-01 00:23:20
    Tagged date : UTC 2013-06-01 00:23:48

    Audio
    ID : 2
    Format : AAC
    Format/Info : Advanced Audio Codec
    Format profile : HE-AAC / LC
    Codec ID : 40
    Duration : 1h 42mn
    Bit rate mode : Variable
    Bit rate : 64.0 Kbps
    Maximum bit rate : 74.9 Kbps
    Channel(s) : 2 channels
    Channel positions : Front: L R
    Sampling rate : 48.0 KHz / 24.0 KHz
    Compression mode : Lossy
    Stream size : 46.7 MiB (7%)
    Encoded date : UTC 2013-06-01 00:23:46
    Tagged date : UTC 2013-06-01 00:23:48















    [ DOWNLOAD ]


    [ uploadinc ]

    Code:
    http://uploadinc.com/m2wiocxgfl39.html
    [ arabloads ]

    Code:
    http://www.arabloads.com/oazcj22gv6e5/Sona_Spa_2013_WEBRIP_DDH.mp4.html
    [ hugefiles ]

    Code:
    http://hugefiles.net/c6zjhshl1g5m
    [ filesflash ]

    Code:
    http://filesflash.com/3orbs2xu
    [ filesflash for indian users ]

    Code:
    http://filesflash:8001.com/3orbs2xu














 

 

Posting Permissions

  • You may not post new threads
  • You may not post replies
  • You may not post attachments
  • You may not edit your posts
  •