Results 1 to 1 of 1
  1. #1
    dR Rockers www.desirulez.net
    Join Date
    Aug 2011
    Posts
    5,859

    Cool Chennai Express (2013) - 700MB - 1CDRip - CAM - XviD - MP3 - [ExD-ExclusivE]

    Follow us on Social Media










    Code:
    General
    Complete name                            : Chennai Express (2013) - 1CD - CAM - XviD - MP3 [ExD-ExclusivE]
    Format                                   : AVI
    Format/Info                              : Audio Video Interleave
    File size                                : 695 MiB
    Duration                                 : 2h 9mn
    Overall bit rate                         : 750 Kbps
    
    Video
    Format                                   : XVID
    Duration                                 : 2h 9mn
    Bit rate                                 : 657 Kbps
    Width                                    : 640 pixels
    Height                                   : 272 pixels
    Display aspect ratio                     : 2.35:1
    Frame rate                               : 25.000 fps
    Color space                              : YUV
    Chroma subsampling                       : 4:2:0
    Bit depth                                : 8 bits
    Scan type                                : Progressive
    Compression mode                         : Lossy
    Bits/(Pixel*Frame)                       : 0.151
    Stream size                              : 609 MiB (88%)
    
    Audio
    Format                                   : MPEG Audio
    Duration                                 : 2h 9mn
    Source duration                          : 2h 9mn
    Bit rate mode                            : Constant
    Bit rate                                 : 80.0 Kbps
    Channel(s)                               : 2 channels
    Sampling rate                            : 48.0 KHz
    Compression mode                         : Lossy
    Stream size                              : 74.1 MiB (11%)





    SINGLE LINKS

    Code:
    http://extabit.com/file/2dudco56cohzt/Chennai.Express.(2013).1CD.CAM.XviD.MP3.[ExD-ExclusivE].avi
    Code:
    http://lumfile.com/v0g7vlh0q2g0/Chennai.Express.(2013).1CD.CAM.XviD.MP3.[ExD-ExclusivE].avi.html

 

 

Posting Permissions

  • You may not post new threads
  • You may not post replies
  • You may not post attachments
  • You may not edit your posts
  •