Results 1 to 1 of 1
  1. #1

    Default Chennai Express - 2013 - 1CD HQ Super Cam XviD Mp3 Exclusive

    Follow us on Social Media







    Code:
    Format                                   : AVI
    Format/Info                              : Audio Video Interleave
    File size                                : 901 MiB
    Duration                                 : 2h 9mn
    Overall bit rate                         : 972 Kbps
    Writing application                      : Lavf52.39.1
    
    Video
    ID                                       : 0
    Format                                   : xvid
    Codec ID                                 : xvid
    Duration                                 : 2h 9mn
    Bit rate                                 : 896 Kbps
    Width                                    : 640 pixels
    Height                                   : 272 pixels
    Display aspect ratio                     : 2.35:1
    Frame rate                               : 25.000 fps
    Bits/(Pixel*Frame)                       : 0.206
    Stream size                              : 829 MiB (92%)
    
    Audio
    ID                                       : 1
    Format                                   : MPEG Audio
    Format version                           : Version 1
    Format profile                           : Layer 3
    Mode                                     : Joint stereo
    Mode extension                           : MS Stereo
    Codec ID                                 : 55
    Codec ID/Hint                            : MP3
    Duration                                 : 2h 9mn
    Bit rate mode                            : Constant
    Bit rate                                 : 64.0 Kbps
    Channel(s)                               : 2 channels
    Sampling rate                            : 48.0 KHz
    Compression mode                         : Lossy
    Stream size                              : 59.3 MiB (7%)
    Alignment                                : Aligned on interleaves
    Interleave, duration                     : 24 ms (0.60 video frame)







    Code:
    http://fileom.com/6k6lqrt4zxqw/Chennai.Express.1CD.Scam.XviD.avi.html
    
    http://ultramegabit.com/file/details/Jp7M0Uy4sWU
    
    http://turbobit.net/f89cqgthrfgz/Chennai.Express.1CD.Scam.XviD.avi.html

 

 

Posting Permissions

  • You may not post new threads
  • You may not post replies
  • You may not post attachments
  • You may not edit your posts
  •