Results 1 to 1 of 1
  1. #1
    Hot Member www.desirulez.net
    Join Date
    Feb 2013
    Posts
    1,015

    Cool Chennai Express (2013) (Hindi) 1CD CAM XviD MP3 700MB - ExD ExclusivE

    Follow us on Social Media









    General
    Complete name : Chennai Express (2013) - 1CD - CAM - XviD - MP3 [ExD-ExclusivE]
    Format : AVI
    Format/Info : Audio Video Interleave
    File size : 695 MiB
    Duration : 2h 9mn
    Overall bit rate : 750 Kbps

    Video
    Format : XVID
    Duration : 2h 9mn
    Bit rate : 657 Kbps
    Width : 640 pixels
    Height : 272 pixels
    Display aspect ratio : 2.35:1
    Frame rate : 25.000 fps
    Color space : YUV
    Chroma subsampling : 4:2:0
    Bit depth : 8 bits
    Scan type : Progressive
    Compression mode : Lossy
    Bits/(Pixel*Frame) : 0.151
    Stream size : 609 MiB (88%)

    Audio
    Format : MPEG Audio
    Duration : 2h 9mn
    Source duration : 2h 9mn
    Bit rate mode : Constant
    Bit rate : 80.0 Kbps
    Channel(s) : 2 channels
    Sampling rate : 48.0 KHz
    Compression mode : Lossy
    Stream size : 74.1 MiB (11%)














    [ sample ]

    Code:
    http://filedesi.com/jlz77yzuev0x
    [ DOWNLOAD ]


    [ uploadinc ]

    Code:
    http://uploadinc.com/yb1c0p4x2onm.html
    [ arabloads ]

    Code:
    http://www.arabloads.com/ts21wo6dg5if/Chennai_Express_(2013)_-_1CD_-_CAM_-_XviD_-_MP3_[ExD-ExclusivE].avi.html
    [ hugefiles ]

    Code:
    http://hugefiles.net/3ffmgw80o49u
    [ filesflash ]

    Code:
    http://filesflash.com/g3f1r0we
    [ filesflash for indian users ]

    Code:
    http://filesflash:8001.com/g3f1r0we















 

 

Posting Permissions

  • You may not post new threads
  • You may not post replies
  • You may not post attachments
  • You may not edit your posts
  •