Results 1 to 1 of 1
  1. #1
    Hot Member www.desirulez.net
    Join Date
    Feb 2013
    Posts
    1,015

    T

    Cool Yamla Pagla Deewana 2 (2013) BRRip 720p x264 AC3 5.1 prisak-HKRG

    Follow us on Social Media












    General

    Complete name : Yamla Pagla Deewana 2 (2013) BRRip 720p x264 AC3 5.1--prisak~~{HKRG}.mkv
    Format : Matroska
    Format version : Version 2
    File size : 1.25 GiB
    Duration : 2h 34mn
    Overall bit rate : 1 159 Kbps
    Movie name : Yamla Pagla Deewana 2 (2013) BRRip 720p x264 AC3 5.1--prisak~~{HKRG}
    Encoded date : UTC 2013-08-08 02:17:10
    Writing application : mkvmerge v5.8.0 ('No Sleep / Pillow') built on Sep 2 2012 15:37:04
    Writing library : libebml v1.2.3 + libmatroska v1.3.0

    Video
    ID : 1
    Format : AVC
    Format/Info : Advanced Video Codec
    Format profile : [email protected]
    Format settings, CABAC : Yes
    Format settings, ReFrames : 4 frames
    Muxing mode : Header stripping
    Codec ID : V_MPEG4/ISO/AVC
    Duration : 2h 34mn
    Bit rate : 699 Kbps
    Width : 1 280 pixels
    Height : 544 pixels
    Display aspect ratio : 2.35:1
    Frame rate mode : Constant
    Frame rate : 29.970 fps
    Color space : YUV
    Chroma subsampling : 4:2:0
    Bit depth : 8 bits
    Scan type : Progressive
    Bits/(Pixel*Frame) : 0.033
    Stream size : 758 MiB (59%)
    Title : Yamla Pagla Deewana 2 (2013) BRRip 720p x264 AC3 5.1--prisak~~{HKRG}
    Writing library : x264 core 112
    Encoding settings : cabac=1 / ref=3 / deblock=1:0:0 / analyse=0x3:0x113 / me=hex / subme=7 / psy=1 / psy_rd=1.00:0.00 / mixed_ref=1 / me_range=16 / chroma_me=1 / trellis=1 / 8x8dct=1 / cqm=0 / deadzone=21,11 / fast_pskip=1 / chroma_qp_offset=-2 / threads=3 / sliced_threads=0 / nr=0 / decimate=1 / interlaced=0 / constrained_intra=0 / bframes=3 / b_pyramid=2 / b_adapt=1 / b_bias=0 / direct=1 / weightb=1 / open_gop=0 / weightp=2 / keyint=300 / keyint_min=29 / scenecut=40 / intra_refresh=0 / rc_lookahead=40 / rc=abr / mbtree=1 / bitrate=699 / ratetol=1.0 / qcomp=0.60 / qpmin=3 / qpmax=51 / qpstep=4 / ip_ratio=1.40 / aq=1:1.00
    Language : English
    Default : Yes
    Forced : No
    Color primaries : BT.709
    Transfer characteristics : BT.709
    Matrix coefficients : BT.709

    Audio
    ID : 2
    Format : AC-3
    Format/Info : Audio Coding 3
    Mode extension : CM (complete main)
    Format settings, Endianness : Big
    Muxing mode : Header stripping
    Codec ID : A_AC3
    Duration : 2h 34mn
    Bit rate mode : Constant
    Bit rate : 448 Kbps
    Channel(s) : 6 channels
    Channel positions : Front: L C R, Side: L R, LFE
    Sampling rate : 44.1 KHz
    Bit depth : 16 bits
    Compression mode : Lossy
    Stream size : 494 MiB (39%)
    Title : prisak {{HKRG}} 5.1 @ 448 Kbps
    Language : Hindi
    Default : Yes
    Forced : No












    [ sample ]

    Code:
    http://www.arabloads.com/uavi9al44vsq/Sample-Yamla_Pagla_Deewana_2_(2013)_BRRip_720p_x264_AC3_5.1--prisak~~%7BHKRG%7D.mkv.html
    [ DOWNLOAD ]


    [ uploadinc ]

    Code:
    http://uploadinc.com/8sry3z90cimn.html
    [ arabloads ]

    Code:
    http://www.arabloads.com/uuhk6x2e5rbh/Yamla_Pagla_Deewana_2_(2013)_BRRip_720p_x264_AC3_5.1--prisak~~%7BHKRG%7D.mkv.html
    [ hugefiles ]

    Code:
    http://hugefiles.net/qh11nwud6svz
    [ filesflash ]

    Code:
    http://filesflash.com/1uz32il0
    [ filesflash for indian users ]

    Code:
    http://filesflash:8001.com/1uz32il0














 

 

Posting Permissions

  • You may not post new threads
  • You may not post replies
  • You may not post attachments
  • You may not edit your posts
  •