Results 1 to 1 of 1
  1. #1
    dR Rockers www.desirulez.net
    Join Date
    Aug 2011
    Posts
    5,859

    Cool No.1 - Mr. Perfect (2013) - Hindi - BluRay Rip - 720p - x264 - AC3 - [Team TT]

    Follow us on Social Media












    Code:
    General Complete name : No.1 Mr. Perfect [2013].mkv Format : Matroska Format version : Version 1 File size : 2.39 GiB Duration : 2h 26mn Overall bit rate : 2 348 Kbps Encoded date : UTC 2013-08-05 00:23:51 Writing library : WonderShare Matroska Muxer Video ID : 1 Format : AVC Format/Info : Advanced Video Codec Format profile : [email protected] Format settings, CABAC : No Format settings, ReFrames : 1 frame Format settings, GOP : M=1, N=25 Codec ID : V_MPEG4/ISO/AVC Duration : 2h 26mn Bit rate : 2 045 Kbps Width : 1 280 pixels Height : 544 pixels Display aspect ratio : 2.35:1 Original display aspect ratio : 2.35:1 Frame rate mode : Variable Frame rate : 23.976 fps Original frame rate : 23.000 fps Color space : YUV Chroma subsampling : 4:2:0 Bit depth : 8 bits Scan type : Progressive Bits/(Pixel*Frame) : 0.123 Stream size : 2.09 GiB (87%) Default : Yes Forced : No Audio ID : 2 Format : AC-3 Format/Info : Audio Coding 3 Mode extension : CM (complete main) Format settings, Endianness : Big Codec ID : A_AC3 Duration : 2h 26mn Bit rate mode : Constant Bit rate : 256 Kbps Channel(s) : 6 channels Channel positions : Front: L C R, Side: L R, LFE Sampling rate : 44.1 KHz Bit depth : 16 bits Compression mode : Lossy Stream size : 267 MiB (11%) Default : Yes Forced : No














    SINGLE LINKS
    Code:
    http://extabit.com/file/2danv5ef1l3bd/No.1-Mr.Perfect.[2013].Hindi.BluRay.720p.x264.AC3.[Team.Telly].eXclusive-deep1007.mkv
    Code:
    http://lumfile.com/55a4gundum0h/No.1-Mr.Perfect.[2013].Hindi.BluRay.720p.x264.AC3.[Team.Telly].eXclusive-deep1007.mkv.html

    700MB LINKS

    Code:
    http://extabit.com/file/2danv5eex81dl/No.1-Mr.Perfect.[2013].Hindi.BluRay.720p.x264.AC3.[Team.Telly].eXclusive-deep1007.mkv.001
    http://extabit.com/file/2danv5eex7y6h/No.1-Mr.Perfect.[2013].Hindi.BluRay.720p.x264.AC3.[Team.Telly].eXclusive-deep1007.mkv.002
    http://extabit.com/file/2danv5eex7y6x/No.1-Mr.Perfect.[2013].Hindi.BluRay.720p.x264.AC3.[Team.Telly].eXclusive-deep1007.mkv.003
    http://extabit.com/file/2danv5eex7y2h/No.1-Mr.Perfect.[2013].Hindi.BluRay.720p.x264.AC3.[Team.Telly].eXclusive-deep1007.mkv.004
    Code:
    http://lumfile.com/a16fp3w4h40g/No.1-Mr.Perfect.[2013].Hindi.BluRay.720p.x264.AC3.[Team.Telly].eXclusive-deep1007.mkv.001.html
    http://lumfile.com/dqhen9we0dev/No.1-Mr.Perfect.[2013].Hindi.BluRay.720p.x264.AC3.[Team.Telly].eXclusive-deep1007.mkv.002.html
    http://lumfile.com/vmfkld1nfl36/No.1-Mr.Perfect.[2013].Hindi.BluRay.720p.x264.AC3.[Team.Telly].eXclusive-deep1007.mkv.003.html
    http://lumfile.com/f1yvji46sy68/No.1-Mr.Perfect.[2013].Hindi.BluRay.720p.x264.AC3.[Team.Telly].eXclusive-deep1007.mkv.004.html

 

 

Posting Permissions

  • You may not post new threads
  • You may not post replies
  • You may not post attachments
  • You may not edit your posts
  •