Results 1 to 1 of 1
  1. #1

    Cool Yamla Pagla Deewana 2 (2013) - 720p - BluRay - x264 - AC3 - ESubs [TeamExD]

    Follow us on Social Media













    General
    Complete name : Yamla Pagla Deewana 2 (2013) - 720p - BluRay - x264 - AC3 - E.Sub [TeamExD].mkv
    Format : Matroska
    Format version : Version 2
    File size : 4.43 GiB
    Duration : 2h 34mn
    Overall bit rate : 4 115 Kbps

    Video
    Format : AVC
    Duration : 2h 34mn
    Bit rate : 3 618 Kbps
    Width : 1 280 pixels
    Height : 544 pixels
    Display aspect ratio : 2.35:1
    Frame rate mode : Constant
    Frame rate : 29.970 fps
    Color space : YUV
    Chroma subsampling : 4:2:0
    Bit depth : 8 bits
    Scan type : Progressive
    Bits/(Pixel*Frame) : 0.173
    Stream size : 3.86 GiB (87%)

    Audio
    Format : AC-3
    Duration : 2h 34mn
    Bit rate mode : Constant
    Bit rate : 448 Kbps
    Channel(s) : 6 channels
    Channel positions : Front: L C R, Side: L R, LFE
    Sampling rate : 44.1 KHz
    Bit depth : 16 bits
    Compression mode : Lossy
    Stream size : 494 MiB (11%)

    Text
    Format : UTF-8
    Language : English
    Code:
    http://ryushare.com/29ed7e22f8ca/Yamla_Pagla_Deewana_2_(2013)_-_720p_-_BluRay_-_x264_-_AC3_-_E.Sub_[TeamExD].mkv.001
    http://ryushare.com/281bd4d9f0ea/Yamla_Pagla_Deewana_2_(2013)_-_720p_-_BluRay_-_x264_-_AC3_-_E.Sub_[TeamExD].mkv.002
    http://ryushare.com/2904a97f053f/Yamla_Pagla_Deewana_2_(2013)_-_720p_-_BluRay_-_x264_-_AC3_-_E.Sub_[TeamExD].mkv.003
    http://ryushare.com/281bd4d9f0ee/Yamla_Pagla_Deewana_2_(2013)_-_720p_-_BluRay_-_x264_-_AC3_-_E.Sub_[TeamExD].mkv.004
    http://ryushare.com/2904a97f0540/Yamla_Pagla_Deewana_2_(2013)_-_720p_-_BluRay_-_x264_-_AC3_-_E.Sub_[TeamExD].mkv.005
    Code:
    http://rapidgator.net/file/1c7bd0fe0560154c5809dd329023a769/Yamla_Pagla_Deewana_2_(2013)_-_720p_-_BluRay_-_x264_-_AC3_-_E.Sub_[TeamExD].mkv.001.html
    http://rapidgator.net/file/064fb146a93d1c766b697f3f634a4682/Yamla_Pagla_Deewana_2_(2013)_-_720p_-_BluRay_-_x264_-_AC3_-_E.Sub_[TeamExD].mkv.002.html
    http://rapidgator.net/file/f144553c2e2193d40282e1ae0f8d4f90/Yamla_Pagla_Deewana_2_(2013)_-_720p_-_BluRay_-_x264_-_AC3_-_E.Sub_[TeamExD].mkv.003.html
    http://rapidgator.net/file/1aa744f6a1d62c1aecbac20969c12b7f/Yamla_Pagla_Deewana_2_(2013)_-_720p_-_BluRay_-_x264_-_AC3_-_E.Sub_[TeamExD].mkv.004.html
    http://rapidgator.net/file/b7995067ab41a7498d14cd00f85e85e6/Yamla_Pagla_Deewana_2_(2013)_-_720p_-_BluRay_-_x264_-_AC3_-_E.Sub_[TeamExD].mkv.005.html
    Code:
    http://ul.to/i76tqyfj
    http://ul.to/gjfw1459
    http://ul.to/38eykoro
    http://ul.to/8hw6jujv
    http://ul.to/3mcbnrt2
    Code:
    https://ultramegabit.com/file/details/79ORQ1VYzy0
    https://ultramegabit.com/file/details/DYFtbc4jy6A
    https://ultramegabit.com/file/details/8vj5OwnLl3A
    https://ultramegabit.com/file/details/LrFdihqZmBg
    https://ultramegabit.com/file/details/-e7JAsZwvdU

 

 

Posting Permissions

  • You may not post new threads
  • You may not post replies
  • You may not post attachments
  • You may not edit your posts
  •