Results 1 to 1 of 1
  1. #1
    dR Rockers www.desirulez.net
    Join Date
    Aug 2011
    Posts
    5,859

    Cool Yamla Pagla Deewana 2 (2013) - 720p - BluRay - x264 - AC3 - E.Sub [TeamExD]

    Follow us on Social Media











    Code:
    General
    Complete name                            : Yamla Pagla Deewana 2 (2013) - 720p - BluRay - x264 - AC3 - E.Sub [TeamExD].mkv
    Format                                   : Matroska
    Format version                           : Version 2
    File size                                : 4.43 GiB
    Duration                                 : 2h 34mn
    Overall bit rate                         : 4 115 Kbps
    
    Video
    Format                                   : AVC
    Duration                                 : 2h 34mn
    Bit rate                                 : 3 618 Kbps
    Width                                    : 1 280 pixels
    Height                                   : 544 pixels
    Display aspect ratio                     : 2.35:1
    Frame rate mode                          : Constant
    Frame rate                               : 29.970 fps
    Color space                              : YUV
    Chroma subsampling                       : 4:2:0
    Bit depth                                : 8 bits
    Scan type                                : Progressive
    Bits/(Pixel*Frame)                       : 0.173
    Stream size                              : 3.86 GiB (87%)
    
    Audio
    Format                                   : AC-3
    Duration                                 : 2h 34mn
    Bit rate mode                            : Constant
    Bit rate                                 : 448 Kbps
    Channel(s)                               : 6 channels
    Channel positions                        : Front: L C R, Side: L R, LFE
    Sampling rate                            : 44.1 KHz
    Bit depth                                : 16 bits
    Compression mode                         : Lossy
    Stream size                              : 494 MiB (11%)
    
    Text
    Format                                   : UTF-8
    Language                                 : English






    SINGLE LINKS
    Code:
    http://extabit.com/file/2danv5g571pcd/Yamla.Pagla.Deewana.2.(2013).720p.BluRay.x264.AC3.E.Sub.[Team.ExD].mkv
    Code:
    http://lumfile.com/x2mpqmrgmywn/Yamla.Pagla.Deewana.2.(2013).720p.BluRay.x264.AC3.E.Sub.[Team.ExD].mkv.html

    1GB LINKS

    Code:
    http://extabit.com/file/2danv5g572899/Yamla.Pagla.Deewana.2.(2013).720p.BluRay.x264.AC3.E.Sub.[Team.ExD].mkv.001
    http://extabit.com/file/2danv5g57287h/Yamla.Pagla.Deewana.2.(2013).720p.BluRay.x264.AC3.E.Sub.[Team.ExD].mkv.002
    http://extabit.com/file/2danv5g572565/Yamla.Pagla.Deewana.2.(2013).720p.BluRay.x264.AC3.E.Sub.[Team.ExD].mkv.003
    http://extabit.com/file/2danv5g57256l/Yamla.Pagla.Deewana.2.(2013).720p.BluRay.x264.AC3.E.Sub.[Team.ExD].mkv.004
    http://extabit.com/file/2danv5g52pfkt/Yamla.Pagla.Deewana.2.(2013).720p.BluRay.x264.AC3.E.Sub.[Team.ExD].mkv.005
    Code:
    http://lumfile.com/ny3t05kgp1wb/Yamla.Pagla.Deewana.2.(2013).720p.BluRay.x264.AC3.E.Sub.[Team.ExD].mkv.001.html
    http://lumfile.com/86gzsnuxmmg0/Yamla.Pagla.Deewana.2.(2013).720p.BluRay.x264.AC3.E.Sub.[Team.ExD].mkv.002.html
    http://lumfile.com/y2745dz6vpj0/Yamla.Pagla.Deewana.2.(2013).720p.BluRay.x264.AC3.E.Sub.[Team.ExD].mkv.003.html
    http://lumfile.com/vbt50bmokyoo/Yamla.Pagla.Deewana.2.(2013).720p.BluRay.x264.AC3.E.Sub.[Team.ExD].mkv.004.html
    http://lumfile.com/7crpnmwlf0q3/Yamla.Pagla.Deewana.2.(2013).720p.BluRay.x264.AC3.E.Sub.[Team.ExD].mkv.005.html

 

 

Posting Permissions

  • You may not post new threads
  • You may not post replies
  • You may not post attachments
  • You may not edit your posts
  •