Results 1 to 1 of 1
  1. #1

    Cool White House Down (2013) TS X264 DUAL AUDIO[HIN+ENG]

    Follow us on Social Media







    Complete name : White House Down 2013 TS X264 DUAL AUDIO[HIN+ENG].mkv
    Format : Matroska
    Format version : Version 2
    File size : 1.29 GiB
    Duration : 2h 5mn
    Overall bit rate : 1 470 Kbps
    Encoded date : UTC 2013-07-20 09:07:34
    Writing application : mkvmerge v6.2.0 ('Promised Land') built on Apr 28 2013 12:22:01
    Writing library : libebml v1.3.0 + libmatroska v1.4.0
    Video
    ID : 1
    Format : AVC
    Format/Info : Advanced Video Codec
    Format profile : [email protected]
    Format settings, CABAC : Yes
    Format settings, ReFrames : 5 frames
    Codec ID : V_MPEG4/ISO/AVC
    Duration : 2h 5mn
    Bit rate : 700 Kbps
    Width : 672 pixels
    Height : 288 pixels
    Display aspect ratio : 2.35:1
    Frame rate mode : Constant
    Frame rate : 24.000 fps
    Color space : YUV
    Chroma subsampling : 4:2:0
    Bit depth : 8 bits
    Scan type : Progressive
    Bits/(Pixel*Frame) : 0.151
    Stream size : 603 MiB (46%)
    Writing library : x264 core 133 r2334 a3ac64b

    Default : Yes
    Forced : No
    Matrix coefficients : BT.709

    Audio #1
    ID : 2
    Format : AC-3
    Format/Info : Audio Coding 3
    Mode extension : CM (complete main)
    Format settings, Endianness : Big
    Codec ID : A_AC3
    Duration : 2h 5mn
    Bit rate mode : Constant
    Bit rate : 384 Kbps
    Channel(s) : 2 channels
    Channel positions : Front: L R
    Sampling rate : 48.0 KHz
    Bit depth : 16 bits
    Compression mode : Lossy
    Stream size : 344 MiB (26%)
    Language : English
    Default : Yes
    Forced : No

    Audio #2
    ID : 3
    Format : AC-3
    Format/Info : Audio Coding 3
    Mode extension : CM (complete main)
    Format settings, Endianness : Big
    Codec ID : A_AC3
    Duration : 2h 5mn
    Bit rate mode : Constant
    Bit rate : 384 Kbps
    Channel(s) : 2 channels
    Channel positions : Front: L R
    Sampling rate : 48.0 KHz
    Bit depth : 16 bits
    Compression mode : Lossy
    Stream size : 344 MiB (26%)
    Language : Hindi
    Default : No
    Forced : No






    Code:
    http://ryushare.com/281bd4d9ef86/White_House_Down_2013__TS_X264_DUAL_AUDIO[HIN+ENG].mkv
    
    http://rapidgator.net/file/04802c2cfaadd7e9cb0ca5cae0c4bba2/White_House_Down_2013__TS_X264_DUAL_AUDIO[HIN_ENG].mkv.html

 

 

Posting Permissions

  • You may not post new threads
  • You may not post replies
  • You may not post attachments
  • You may not edit your posts
  •