Results 1 to 1 of 1
  1. #1
    Super Member www.desirulez.net
    Join Date
    Apr 2013
    Posts
    209

    Default Rabba Main Kiya Keroon (2013) - 1/ 3DVDScr - x264 - AC3 5.1 - [PROBLEM]

    Follow us on Social Media













    Code:

    Complete name : F:\utorrent\Rabba Main Kiya Keroon (2013) 13 DvDScr x264 AC3 5.1 [Team Telly] By PROBLEM\Rabba Main Kiya Keroon (2013) 13 DvDScr x264 AC3 5.1 [Team Telly] By PROBLEM.mkv Format : Matroska Format version : Version 2 File size : 1.46 GiB Duration : 1h 52mn Overall bit rate : 1 849 Kbps Encoded date : UTC 2013-08-05 05:25:13 Writing application : mkvmerge v6.2.0 ('Promised Land') built on Apr 28 2013 12:22:01 Writing library : libebml v1.3.0 + libmatroska v1.4.0 Video ID : 1 Format : AVC Format/Info : Advanced Video Codec Format profile : [email protected] Format settings, CABAC : Yes Format settings, ReFrames : 5 frames Codec ID : V_MPEG4/ISO/AVC Duration : 1h 52mn Bit rate : 1 623 Kbps Width : 640 pixels Height : 256 pixels Display aspect ratio : 2.500 Frame rate mode : Constant Frame rate : 23.976 fps Color space : YUV Chroma subsampling : 4:2:0 Bit depth : 8 bits Scan type : Progressive Bits/(Pixel*Frame) : 0.413 Stream size : 1.25 GiB (86%) Language : English Default : Yes Forced : No Color primaries : Generic film Transfer characteristics : BT.709 Matrix coefficients : BT.709 Audio ID : 2 Format : AC-3 Format/Info : Audio Coding 3 Mode extension : CM (complete main) Format settings, Endianness : Big Codec ID : A_AC3 Duration : 1h 52mn Bit rate mode : Constant Bit rate : 224 Kbps Channel(s) : 6 channels Channel positions : Front: L C R, Side: L R, LFE Sampling rate : 48.0 KHz Bit depth : 16 bits Compression mode : Lossy Stream size : 181 MiB (12%) Default : Yes Forced : No















    SINGLE LINKS




    Code:
    http://rapidgator.net/file/956012da1e27c568520a80742bdb8d5a/Rabba.Main.Kiya.Keroon.(2013).13.DvDScr.x264.AC3.5.1.[Team.Telly].mkv.html


    Code:
    http://lumfile.com/m4x1qly4l6wj/Rabba.Main.Kiya.Keroon.(2013).13.DvDScr.x264.AC3.5.1.[Team.Telly].mkv.html

 

 

Posting Permissions

  • You may not post new threads
  • You may not post replies
  • You may not post attachments
  • You may not edit your posts
  •