Results 1 to 1 of 1
  1. #1
    dR Rockers www.desirulez.net
    Join Date
    Aug 2011
    Posts
    5,859

    Cool Shaitan (2011) - 720p - BluRay - mHD - x264 - AC3 [ExD-ExclusivE]

    Follow us on Social Media












    Code:
    General
    Complete name                            : Shaitan (2011) - 720p - BluRay - mHD - x264 - AC3 [ExD-ExclusivE].mkv
    Format                                   : Matroska
    Format version                           : Version 2
    File size                                : 2.23 GiB
    Duration                                 : 2h 7mn
    Overall bit rate                         : 2 516 Kbps
    
    Video
    Format                                   : AVC
    Duration                                 : 2h 7mn
    Bit rate                                 : 1 835 Kbps
    Width                                    : 1 280 pixels
    Height                                   : 544 pixels
    Display aspect ratio                     : 2.35:1
    Frame rate mode                          : Constant
    Frame rate                               : 24.000 fps
    Color space                              : YUV
    Chroma subsampling                       : 4:2:0
    Bit depth                                : 8 bits
    Scan type                                : Progressive
    Bits/(Pixel*Frame)                       : 0.110
    Stream size                              : 1.62 GiB (73%)
    
    Audio
    Format                                   : AC-3
    Duration                                 : 2h 7mn
    Bit rate mode                            : Constant
    Bit rate                                 : 640 Kbps
    Channel(s)                               : 6 channels
    Channel positions                        : Front: L C R, Side: L R, LFE
    Sampling rate                            : 48.0 KHz
    Bit depth                                : 16 bits
    Compression mode                         : Lossy
    Stream size                              : 582 MiB (25%)
    Language                                 : Hindi
    
    
    Text
    Format                                   : PGS
    Language                                 : English











    SINGLE LINKS

    Code:
    http://extabit.com/file/2cq6meha6ecs1/Shaitan.(2011).720p.BluRay.mHD.x264.AC3.[ExD-ExclusivE].mkv
    Code:
    http://lumfile.com/9bhc3f2etmgb/Shaitan.(2011).720p.BluRay.mHD.x264.AC3.[ExD-ExclusivE].mkv.html



    700MB LINKS

    Code:
    http://extabit.com/file/2cq6meha6dhb5/Shaitan.(2011).720p.BluRay.mHD.x264.AC3.[ExD-ExclusivE].mkv.001
    http://extabit.com/file/2cq6meha6de01/Shaitan.(2011).720p.BluRay.mHD.x264.AC3.[ExD-ExclusivE].mkv.002
    http://extabit.com/file/2cq6meha6dnn5/Shaitan.(2011).720p.BluRay.mHD.x264.AC3.[ExD-ExclusivE].mkv.003
    http://extabit.com/file/2cq6meha6dnht/Shaitan.(2011).720p.BluRay.mHD.x264.AC3.[ExD-ExclusivE].mkv.004

    Code:
    http://lumfile.com/le6zuly32k8l/Shaitan.(2011).720p.BluRay.mHD.x264.AC3.[ExD-ExclusivE].mkv.001.html
    http://lumfile.com/e7r6byu05civ/Shaitan.(2011).720p.BluRay.mHD.x264.AC3.[ExD-ExclusivE].mkv.002.html
    http://lumfile.com/mg9fdx45frbg/Shaitan.(2011).720p.BluRay.mHD.x264.AC3.[ExD-ExclusivE].mkv.003.html
    http://lumfile.com/zb614yrj2d15/Shaitan.(2011).720p.BluRay.mHD.x264.AC3.[ExD-ExclusivE].mkv.004.html

 

 

Posting Permissions

  • You may not post new threads
  • You may not post replies
  • You may not post attachments
  • You may not edit your posts
  •