Results 1 to 1 of 1
  1. #1
    Hot Member www.desirulez.net
    Join Date
    Feb 2013
    Posts
    667

    T

    Cool Rabba Main Kya Karoon (2013) - Untouched - MC DvdScr - NTSC - Team EXD

    Follow us on Social Media















    Format : MPEG-PS
    File size : 1 024 MiB
    Duration : 56mn 19s
    Overall bit rate mode : Variable
    Overall bit rate : 2 542 Kbps

    Video
    ID : 224 (0xE0)
    Format : MPEG Video
    Format version : Version 2
    Format profile : Main@Main
    Format settings, BVOP : Yes
    Format settings, Matrix : Default
    Format settings, GOP : M=3, N=13
    Duration : 56mn 19s
    Bit rate mode : Variable
    Bit rate : 2 299 Kbps
    Maximum bit rate : 9 008 Kbps
    Width : 720 pixels
    Height : 480 pixels
    Display aspect ratio : 4:3
    Frame rate : 29.970 fps
    Standard : NTSC
    Color space : YUV
    Chroma subsampling : 4:2:0
    Bit depth : 8 bits
    Scan type : Progressive
    Compression mode : Lossy
    Bits/(Pixel*Frame) : 0.222
    Time code of first frame : 00:00:00;00
    Time code source : Group of pictures header
    Stream size : 926 MiB (90%)

    Audio
    ID : 189 (0xBD)-128 (0x80)
    Format : AC-3
    Format/Info : Audio Coding 3
    Mode extension : CM (complete main)
    Format settings, Endianness : Big
    Muxing mode : DVD-Video
    Duration : 56mn 19s
    Bit rate mode : Constant
    Bit rate : 192 Kbps
    Channel(s) : 2 channels
    Channel positions : Front: L R
    Sampling rate : 48.0 KHz
    Bit depth : 16 bits
    Compression mode : Lossy
    Stream size : 77.3 MiB (8%)

    Menu
    Code:
    http://ryushare.com/4b9439ffa1a3/Rabba_Main_Kya_Karoon_(2013)_-_Untouched_-_MC_DvdScr_-_NTSC_-_Team_EXD.part1.rar
    http://ryushare.com/4aab655a9744/Rabba_Main_Kya_Karoon_(2013)_-_Untouched_-_MC_DvdScr_-_NTSC_-_Team_EXD.part2.rar
    Code:
    http://rapidgator.net/file/5c548bb336b491cd1e3b72d4c9f8496e/Rabba_Main_Kya_Karoon_(2013)_-_Untouched_-_MC_DvdScr_-_NTSC_-_Team_EXD.part1.rar.html
    http://rapidgator.net/file/7ad3b1eaf5ad0234f6b35e259b628489/Rabba_Main_Kya_Karoon_(2013)_-_Untouched_-_MC_DvdScr_-_NTSC_-_Team_EXD.part2.rar.html
    Code:
    http://ul.to/ujvgaid0
    http://ul.to/0kkwvalb
    Code:
    https://ultramegabit.com/file/details/yqVi6rXhM8g
    https://ultramegabit.com/file/details/ekO-h_yxX3M

 

 

Posting Permissions

  • You may not post new threads
  • You may not post replies
  • You may not post attachments
  • You may not edit your posts
  •